Bo c o-cp h Wlf f Wll Strt torrent

UnionPeer.org . . UnionPeer.org 2014 2015 . .

Bo c o-cp h Wlf f Wll Strt .torrent

957 MB   |    :  5 6    |    .torrent :  106    |   
1  
   
...
 

Galfimbul

avatar Galfimbul


-
- - - - - - - - - -
: The Wolf of Wall Street
: 2013 .
C:
: , , ,
: 02:59:49
: (, )
:

: , , , , , , , , , , , , , , , .. ,
:
1987 , . , -, , .


: DVDScr
: DVDScr
: MP4
: H.264
: AAC
: MPEG-4 AVC Video (H.264) / 480x208 / 612 kbps / 23.976 fps / 40:17 / Main Profile 3.0
: AAC, 2 channels, 48 kHz, 128 kbps
General
Complete name : D:\PSP\\\..-.2013.DVDScr.mp4
Format : MPEG-4
Format profile : Base Media
Codec ID : isom
File size : 957 MiB
Duration : 2h 59mn
Overall bit rate mode : Variable
Overall bit rate : 744 Kbps
Encoded date : UTC 2014-01-25 09:57:41
Tagged date : UTC 2014-01-25 09:57:41

Video
ID : 1
Format : AVC
Format/Info : Advanced Video Codec
Format profile : Main@L3.0
Format settings, CABAC : Yes
Format settings, ReFrames : 3 frames
Codec ID : avc1
Codec ID/Info : Advanced Video Coding
Duration : 2h 59mn
Bit rate : 612 Kbps
Maximum bit rate : 4 214 Kbps
Width : 480 pixels
Height : 208 pixels
Display aspect ratio : 2.35:1
Frame rate mode : Constant
Frame rate : 23.976 fps
Color space : YUV
Chroma subsampling : 4:2:0
Bit depth : 8 bits
Scan type : Progressive
Bits/(Pixel*Frame) : 0.256
Stream size : 787 MiB (82%)
Writing library : x264 core 130 r2273 b3065e6
Encoding settings : cabac=1 / ref=3 / deblock=1:-2:-1 / analyse=0x1:0x131 / me=umh / subme=9 / psy=1 / psy_rd=1.00:0.20 / mixed_ref=1 / me_range=16 / chroma_me=1 / trellis=2 / 8x8dct=0 / cqm=0 / deadzone=21,11 / fast_pskip=0 / chroma_qp_offset=-3 / threads=12 / lookahead_threads=1 / sliced_threads=0 / nr=0 / decimate=0 / interlaced=0 / bluray_compat=0 / constrained_intra=0 / bframes=3 / b_pyramid=0 / b_adapt=2 / b_bias=0 / direct=1 / weightb=1 / open_gop=0 / weightp=2 / keyint=250 / keyint_min=23 / scenecut=40 / intra_refresh=0 / rc=cqp / mbtree=0 / qp=20 / ip_ratio=1.40 / pb_ratio=1.30 / aq=0
Encoded date : UTC 2014-01-25 09:57:41
Tagged date : UTC 2014-01-25 09:59:31

Audio
ID : 2
Format : AAC
Format/Info : Advanced Audio Codec
Format profile : LC
Codec ID : 40
Duration : 2h 59mn
Bit rate mode : Variable
Bit rate : 128 Kbps
Maximum bit rate : 162 Kbps
Channel(s) : 2 channels
Channel positions : Front: L R
Sampling rate : 48.0 KHz
Compression mode : Lossy
Delay relative to video : 83ms
Stream size : 165 MiB (17%)
Encoded date : UTC 2014-01-25 09:59:01
Tagged date : UTC 2014-01-25 09:59:31



-
,
- R.G. Video Games World

 ·  , , FAQ-
:  [ 25--2014 16:02 ]

  

.torrent

.torrent 19 KB


: 957 MB
(hash) : 78ad163771b444a97eb278a3906e4ed31e3b1882
:
··
...

, Bo c o-cp h Wlf f Wll Strt

S L
PSP | ·· Bo c o-cp / h Wlf f Wll Strt (Map Copcee / rtin Srss) [2013 ., , , , , HDRip] Dub (Line) + DVO Galfimbul 12117987031.13 GB 0 0 1417546021

21:47

2--14

Bo c o-cp h Wlf f Wll Strt . !

!