Скачать через торрент Учительница Учитель Фильм бесплатно в хорошем качестве torrent

Скачивайте на UnionPeer.org фильмы через торрент без регистрации. Новинки кино в хорошем качестве через торрент. На UnionPeer.org можно скачать через торрент фильмы 2014 и 2015 годов. Самые новые фильмы.

Скачать торрент Учительница Учитель бесплатно через .torrent фильм мультфильм сериал

Статистика раздачи
Размер:  2.47 GB   |    Зарегистрирован:  10 лет   |    .torrent скачан:  289 раз   |   
Раздают:  1  
 

Скачать Учительница / Учитель / A Teacher (Ханна Фидель) [2013, драма, WEB-DL 1080p] через torrent

 
 
Автор Сообщение

Galfimbul

avatar Galfimbul


Учительница / Учитель / A Teacher


Год выхода: 2013
Жанр: драма
Режиссер: Ханна Фидель
В ролях: Линдсэй Бердж, Уилл Бриттейн, Дженифер Предайджер, Джули Дель Филлипс, Джонни Марс, Крис Дюбек

О фильме:
Перед нами история Дайны - молодой школьной учительницы, которая влюбляется в своего ученика-подростка Эрика. То, что начинается как невинный флирт, перерастает в непростые отношения, поглощая все помыслы и эмоции героини и вынуждая пересекать запретные границы…Даже под угрозой разоблачения она продолжает витать в облаках своих грез…



Выпущено: США
Продолжительность: 01:15:38
Озвучивание: Профессиональное (двухголосое) [студия Elrom]

Файл:
Формат: MKV
Качество: WEB-DL 1080p [PHD]
Видео: 4007 kb/s, 1918x784
Аудио: Russian: AC3, 192 kb/s (2 ch) / English: AC3, 384 kb/s (6 ch)
Субтитры: English
Дополнительно: Сохранены оригинальные чаптеры как на Blu-Ray
Размер: 2.47 GB
Скачать: Сэмпл

Релиз группы:

Общее
A.Teacher.2013.WEB-DL.1080p.CINEMANIA.mkv
Формат : Matroska
Версия формата : Version 4 / Version 2
Размер файла : 2,47 Гбайт
Продолжительность : 1 ч. 15 м.
Общий поток : 4676 Кбит/сек
Название фильма : Release Group CINEMANIA
Дата кодирования : UTC 2014-02-03 11:02:12
Программа кодирования : mkvmerge v6.7.0 (''Back to the Ground'') 64bit built on Jan 8 2014 15:10:52
Библиотека кодирования : libebml v1.3.0 + libmatroska v1.4.1

Видео
Идентификатор : 1
Формат : AVC
Формат/Информация : Advanced Video Codec
Профиль формата : [email protected]
Параметр CABAC формата : Да
Параметр ReFrames формата : 5 кадров
Идентификатор кодека : V_MPEG4/ISO/AVC
Продолжительность : 1 ч. 15 м.
Битрейт : 4007 Кбит/сек
Ширина : 1918 пикселей
Высота : 784 пикселя
Соотношение сторон : 2,40:1
Режим частоты кадров : Постоянный
Частота кадров : 23,976 кадра/сек
Цветовое пространство : YUV
Субдискретизация насыщенности : 4:2:0
Битовая глубина : 8 бит
Тип развёртки : Прогрессивная
Бит/(Пиксели*Кадры) : 0.111
Размер потока : 2,12 Гбайт (86%)
Заголовок : Release Group CINEMANIA
Язык : English
Default : Да
Forced : Нет
Основные цвета : BT.709
Характеристики трансфера : BT.709
Коэффициенты матрицы : BT.709

Аудио #1
Идентификатор : 2
Формат : AC-3
Формат/Информация : Audio Coding 3
Расширение режима : CM (complete main)
Параметр Endianness формата : Big
Идентификатор кодека : A_AC3
Продолжительность : 1 ч. 15 м.
Вид битрейта : Постоянный
Битрейт : 192 Кбит/сек
Каналы : 2 канала
Расположение каналов : Front: L R
Частота : 48,0 КГц
Битовая глубина : 16 бит
Метод сжатия : С потерями
Размер потока : 104 Мбайт (4%)
Заголовок : Elrom
Язык : Russian
Default : Да
Forced : Да

Аудио #2
Идентификатор : 3
Формат : AC-3
Формат/Информация : Audio Coding 3
Расширение режима : CM (complete main)
Параметр Endianness формата : Big
Идентификатор кодека : A_AC3
Продолжительность : 1 ч. 15 м.
Вид битрейта : Постоянный
Битрейт : 384 Кбит/сек
Каналы : 6 каналов
Расположение каналов : Front: L C R, Side: L R, LFE
Частота : 48,0 КГц
Битовая глубина : 16 бит
Метод сжатия : С потерями
Размер потока : 208 Мбайт (8%)
Язык : English
Default : Нет
Forced : Нет

Текст
Идентификатор : 4
Формат : UTF-8
Идентификатор кодека : S_TEXT/UTF8
Идентификатор кодека/Информация : UTF-8 Plain Text
Язык : English
Default : Нет
Forced : Нет

Меню
00:00:00.000 : en:Opening Sequence
00:04:21.000 : en:Seeing a Student
00:10:59.000 : en:Her Brother
00:16:34.000 : en:A Party
00:21:11.000 : en:The Photo
00:25:22.000 : en:Chaperoning the Dance
00:31:10.000 : en:The Ranch
00:35:56.000 : en:James
00:42:51.000 : en:A Break
00:46:37.000 : en:The Dance
00:50:28.000 : en:I Miss You
00:55:07.000 : en:Can''t Do This
00:59:42.000 : en:Talk To Me
01:03:09.000 : en:We Can Get Through This
01:07:21.000 : en:A Situation
01:12:33.000 : en:End Credits


Внимание! AdBlock блокирует показ скриншотов, все вопросы к разработчикам )))
Трекер:  [ 03-Фев-2014 15:59 ]

  

Скачать .torrent

Размер .torrent файла 13 KB


Размер: 2.47 GB
Хэш (hash) релиза: b7c9c87ae38ebc24e183aad221ad761bb442e967
Подписка на обновления:

Торренты, похожие на Учительница Учитель скачать торрент

Форум Название Автор Размер S L Добавлен
Зарубежные фильмы 2016-2019 (Новинки зарубежного кино) ·· Учительница / Учитель / A Teacher (Ханна Фидель) [2013, драма, WEB-DL 720p] Galfimbul 23572588202.2 GB 0 0 1488138897

22:54

26-Фев-17

Зарубежные фильмы 2016-2019 (Новинки зарубежного кино) ·· Учительница / Учитель / A Teacher (Ханна Фидель) [2013, драма, WEB-DLRip] Galfimbul 15316131841.43 GB 0 0 1488131028

20:43

26-Фев-17

Еще никто не оставлял запись к записи скачать торрент Учительница Учитель . Будь первым!

!Обратная связь