Скачать через торрент Останки Remains of the Walking Dead Фильм бесплатно в хорошем качестве torrent

Скачивайте на UnionPeer.org фильмы через торрент без регистрации. Новинки кино в хорошем качестве через торрент. На UnionPeer.org можно скачать через торрент фильмы 2014 и 2015 годов. Самые новые фильмы.

Скачать торрент Останки Remains of the Walking Dead бесплатно через .torrent фильм мультфильм сериал

Статистика раздачи
Размер:  7.07 GB   |    Зарегистрирован:  4 года 7 месяцев   |    .torrent скачан:  141 раз   |   
Раздают:  1  
   
загрузка...
 
Автор Сообщение

Galfimbul

avatar Galfimbul


Информация о фильме:
Остатки / Remains of the Walking Dead


Год выхода: 2011
Жанр: ужасы, боевик, драма
Режиссер: Колин Тхейс
В ролях: Мико Хьюз, Лэнс Реддик, Грант Боулер, Тони Сайпресс, Бобби Райс, Джессика Грин, Энтони Маркс, Грег Натчер, Кристина Сантьяго

О фильме:
После ядерного взрыва почти всё население Лас-Вегаса превращается в зомби. Несколько выживших по счастливой случайности находят убежище в казино. Между тем, с каждым днём зомби становятся всё разумнее, крепче и враждебнее. Эти люди, которые никогда не были знакомы друг с другом, оказались застигнутыми врасплох апокалиптическими событиями. Только эта странная "тройка" из прожженного крупье, знаменитого танцора и просто парня оказались в казино, которое оказалось "зомби-безопасным" в виду каких то особых характеристик его расположения..



Выпущено: США
Продолжительность: 01:28:32
Озвучивание:
Профессиональное (двухголосое) [Нтв+]
Любительское (многоголосое) [ViruseProject]
Любительское (одноголосое) [den904]

Файл:
Формат: MKV
Качество: BDRip 1080p [VETO]
Видео: 9085 kb/s, 1920x1080
Аудио:
Russian [Нтв+]: AC3, 192 kb/s (2 ch)
Russian [ViruseProject]: AC3, 448 kb/s (6 ch)
Russian [den904]: AC3, 192 kb/s (2 ch)
English: DTS, 1510 kb/s (2 ch)
Дополнительно: Сохранены оригинальные чаптеры как на Blu-Ray
Размер: 7.07 GB
Скачать: Сэмпл

Релиз группы:

Общее
Remains.2011.Blu.Ray.1080p.CINEMANIA.mkv
Формат : Matroska
Версия формата : Version 4 / Version 2
Размер файла : 7,07 Гбайт
Продолжительность : 1 ч. 28 м.
Общий поток : 11,4 Мбит/сек
Название фильма : Release Group CINEMANIA
Дата кодирования : UTC 2014-03-19 08:19:27
Программа кодирования : mkvmerge v6.8.0 ('Theme for Great Cities') 64bit built on Mar 2 2014 21:34:26
Библиотека кодирования : libebml v1.3.0 + libmatroska v1.4.1

Видео
Идентификатор : 1
Формат : AVC
Формат/Информация : Advanced Video Codec
Профиль формата : High@L4.1
Параметр CABAC формата : Да
Параметр ReFrames формата : 4 кадра
Идентификатор кодека : V_MPEG4/ISO/AVC
Продолжительность : 1 ч. 28 м.
Битрейт : 9085 Кбит/сек
Ширина : 1920 пикселей
Высота : 1080 пикселей
Соотношение сторон : 16:9
Режим частоты кадров : Постоянный
Частота кадров : 23,976 кадра/сек
Цветовое пространство : YUV
Субдискретизация насыщенности : 4:2:0
Битовая глубина : 8 бит
Тип развёртки : Прогрессивная
Бит/(Пиксели*Кадры) : 0.183
Размер потока : 5,48 Гбайт (78%)
Заголовок : Release Group CINEMANIA
Библиотека кодирования : x264 core 130 r2273 b3065e6
Настройки программы : cabac=1 / ref=4 / deblock=1:0:0 / analyse=0x3:0x133 / me=umh / subme=7 / psy=1 / psy_rd=1.00:0.00 / mixed_ref=1 / me_range=16 / chroma_me=1 / trellis=1 / 8x8dct=1 / cqm=0 / deadzone=21,11 / fast_pskip=0 / chroma_qp_offset=-2 / threads=18 / lookahead_threads=3 / sliced_threads=0 / nr=0 / decimate=1 / interlaced=fake / bluray_compat=0 / constrained_intra=0 / bframes=3 / b_pyramid=2 / b_adapt=1 / b_bias=0 / direct=1 / weightb=1 / open_gop=0 / weightp=2 / keyint=240 / keyint_min=23 / scenecut=40 / intra_refresh=0 / rc_lookahead=40 / rc=2pass / mbtree=1 / bitrate=9085 / ratetol=1.0 / qcomp=0.60 / qpmin=10 / qpmax=69 / qpstep=4 / cplxblur=20.0 / qblur=0.5 / ip_ratio=1.40 / aq=1:1.00
Язык : English
Default : Да
Forced : Нет

Аудио #1
Идентификатор : 2
Формат : AC-3
Формат/Информация : Audio Coding 3
Расширение режима : CM (complete main)
Параметр Endianness формата : Big
Идентификатор кодека : A_AC3
Продолжительность : 1 ч. 28 м.
Вид битрейта : Постоянный
Битрейт : 192 Кбит/сек
Каналы : 2 канала
Расположение каналов : Front: L R
Частота : 48,0 КГц
Битовая глубина : 16 бит
Метод сжатия : С потерями
Размер потока : 122 Мбайт (2%)
Заголовок : Нтв+
Язык : Russian
Default : Да
Forced : Да

Аудио #2
Идентификатор : 3
Формат : AC-3
Формат/Информация : Audio Coding 3
Расширение режима : CM (complete main)
Параметр Endianness формата : Big
Идентификатор кодека : A_AC3
Продолжительность : 1 ч. 28 м.
Вид битрейта : Постоянный
Битрейт : 448 Кбит/сек
Каналы : 6 каналов
Расположение каналов : Front: L C R, Side: L R, LFE
Частота : 48,0 КГц
Битовая глубина : 16 бит
Метод сжатия : С потерями
Размер потока : 284 Мбайт (4%)
Заголовок : ViruseProject
Язык : Russian
Default : Нет
Forced : Нет

Аудио #3
Идентификатор : 4
Формат : AC-3
Формат/Информация : Audio Coding 3
Расширение режима : CM (complete main)
Параметр Endianness формата : Big
Идентификатор кодека : A_AC3
Продолжительность : 1 ч. 28 м.
Вид битрейта : Постоянный
Битрейт : 192 Кбит/сек
Каналы : 2 канала
Расположение каналов : Front: L R
Частота : 44,1 КГц
Битовая глубина : 16 бит
Метод сжатия : С потерями
Размер потока : 122 Мбайт (2%)
Заголовок : den904
Язык : Russian
Default : Нет
Forced : Нет

Аудио #4
Идентификатор : 5
Формат : DTS
Формат/Информация : Digital Theater Systems
Режим : 16
Параметр Endianness формата : Big
Идентификатор кодека : A_DTS
Продолжительность : 1 ч. 28 м.
Вид битрейта : Постоянный
Битрейт : 1509 Кбит/сек
Каналы : 2 канала
Расположение каналов : Front: L R
Частота : 48,0 КГц
Битовая глубина : 24 бит
Метод сжатия : С потерями
Размер потока : 956 Мбайт (13%)
Язык : English
Default : Нет
Forced : Нет

Меню
00:00:00.000 : en:00:00:00.000
00:06:59.961 : en:00:06:59.961
00:13:59.964 : en:00:13:59.964
00:20:59.967 : en:00:20:59.967
00:27:59.928 : en:00:27:59.928
00:34:59.931 : en:00:34:59.931
00:41:59.934 : en:00:41:59.934
00:48:59.895 : en:00:48:59.895
00:55:59.898 : en:00:55:59.898
01:02:59.942 : en:01:02:59.942
01:09:59.945 : en:01:09:59.945
01:16:59.906 : en:01:16:59.906
01:28:32.181 : en:01:28:32.181


Трекер:  [ 19-Мар-2014 13:01 ]

  

Скачать .torrent

Размер .torrent файла 36 KB


Размер: 7.07 GB
Хэш (hash) релиза: 87cb3cfe5d2ff721d363b7b5b32eca247536ba4b
Подписка на обновления:

Торренты, похожие на Останки Remains of the Walking Dead скачать торрент

Форум Название Автор Размер S L Добавлен
Зарубежные фильмы 2016-2018 (Новинки зарубежного кино) ·· Останки / Remains of the Walking Dead (Колин Тхейс) [2011, ужасы, боевик, драма, HDRip] Galfimbul 14496113701.35 GB 0 0 1421475686

09:21

17-Янв-15

Зарубежные фильмы 2016-2018 (Новинки зарубежного кино) ·· Останки / Remains of the Walking Dead (Колин Тхейс) [2011, ужасы, боевик, драма, BDRip 720p] Galfimbul 50079627394.66 GB 0 0 1395223278

13:01

19-Мар-14

Еще никто не оставлял запись к записи скачать торрент Останки Remains of the Walking Dead . Будь первым!

!Обратная связь