Скачать через торрент Мгновение любви Here Фильм бесплатно в хорошем качестве torrent

Скачивайте на UnionPeer.org фильмы через торрент без регистрации. Новинки кино в хорошем качестве через торрент. На UnionPeer.org можно скачать через торрент фильмы 2014 и 2015 годов. Самые новые фильмы.

Скачать торрент Мгновение любви Here бесплатно через .torrent фильм мультфильм сериал

Статистика раздачи
Размер:  4.47 GB   |    Зарегистрирован:  4 года 5 месяцев   |    .torrent скачан:  70 раз   |   
Раздают:  1  
   
загрузка...
 
Автор Сообщение

Galfimbul

avatar Galfimbul


Мгновение любви / Here


Год выхода: 2011
Жанр: драма, мелодрама, приключения
Режиссер: Браден Кинг
В ролях: Бен Фостер, Питер Койот, Лубна Азабаль, Алла Саакян, Гарик Чепчян, Нарек Нерсисян, Давит Манукян, Армен Харапетян, Ник Вагнер

О фильме:
Это история двух совершенно разных людей, которых в один прекрасный день судьба сталкивает вместе. Американский фотограф Вилл и художественный фотограф, армянской национальности, Гадарин, случайно встречаются в кафе. Уже после первых нескольких минут общения молодые люди начинают чувствовать необычное притяжение друг к другу. Вскоре они начинают работать вместе, стараясь дополнять друг друга. Гадарин совсем недавно вернулась в Армению, но ей очень тяжело было здесь находиться. Для Вилла главным было убежать подальше от окружающего мира. Вот так два беглеца смогли найти друг друга и найти для себя настоящую гармонию в этом удивительном уголке. Но смогут ли они сохранить эти зарождающиеся чувства?



Выпущено: США
Продолжительность: 02:06:33
Озвучивание: Профессиональное (многоголосое) [Лицензия]

Файл
Формат: MKV
Качество: WEB-DL 1080p [Itunes USA]
Видео: 4119 kb/s, 1920x798
Аудио: Russian: AC3, 448 kb/s (6 ch) / English: AC3, 384 kb/s (6 ch)
Дополнительно: Сохранены оригинальные чаптеры как на Blu-Ray
Размер: 4.47 GB
Скачать: Сэмпл

Релиз группы:
Общее
Here.2011.WEB-DL.1080p.CINEMANIA.mkv
Формат : Matroska
Версия формата : Version 4 / Version 2
Размер файла : 4,47 Гбайт
Продолжительность : 2 ч. 6 м.
Общий поток : 5051 Кбит/сек
Название фильма : Release Group CINEMANIA
Дата кодирования : UTC 2014-04-18 17:38:02
Программа кодирования : mkvmerge v6.8.0 ('Theme for Great Cities') 64bit built on Mar 2 2014 21:34:26
Библиотека кодирования : libebml v1.3.0 + libmatroska v1.4.1

Видео
Идентификатор : 1
Формат : AVC
Формат/Информация : Advanced Video Codec
Профиль формата : High@L4.0
Параметр CABAC формата : Да
Параметр ReFrames формата : 5 кадров
Идентификатор кодека : V_MPEG4/ISO/AVC
Продолжительность : 2 ч. 6 м.
Битрейт : 4119 Кбит/сек
Ширина : 1920 пикселей
Высота : 798 пикселей
Соотношение сторон : 2,40:1
Режим частоты кадров : Постоянный
Частота кадров : 23,976 кадра/сек
Цветовое пространство : YUV
Субдискретизация насыщенности : 4:2:0
Битовая глубина : 8 бит
Тип развёртки : Прогрессивная
Бит/(Пиксели*Кадры) : 0.112
Размер потока : 3,64 Гбайт (82%)
Заголовок : Release Group CINEMANIA
Язык : English
Default : Да
Forced : Нет
Основные цвета : BT.709
Характеристики трансфера : BT.709
Коэффициенты матрицы : BT.709

Аудио #1
Идентификатор : 2
Формат : AC-3
Формат/Информация : Audio Coding 3
Расширение режима : CM (complete main)
Параметр Endianness формата : Big
Идентификатор кодека : A_AC3
Продолжительность : 2 ч. 6 м.
Вид битрейта : Постоянный
Битрейт : 448 Кбит/сек
Каналы : 6 каналов
Расположение каналов : Front: L C R, Side: L R, LFE
Частота : 48,0 КГц
Битовая глубина : 16 бит
Метод сжатия : С потерями
Размер потока : 406 Мбайт (9%)
Заголовок : Лицензия
Язык : Russian
Default : Да
Forced : Да

Аудио #2
Идентификатор : 3
Формат : AC-3
Формат/Информация : Audio Coding 3
Расширение режима : CM (complete main)
Параметр Endianness формата : Big
Идентификатор кодека : A_AC3
Продолжительность : 2 ч. 6 м.
Вид битрейта : Постоянный
Битрейт : 384 Кбит/сек
Каналы : 6 каналов
Расположение каналов : Front: L C R, Side: L R, LFE
Частота : 48,0 КГц
Битовая глубина : 16 бит
Метод сжатия : С потерями
Размер потока : 348 Мбайт (8%)
Язык : English
Default : Нет
Forced : Нет

Меню
00:00:00.000 : en:Chapter 01
00:11:41.000 : en:Chapter 02
00:21:27.000 : en:Chapter 03
00:33:10.000 : en:Chapter 04
00:43:38.000 : en:Chapter 05
00:54:40.000 : en:Chapter 06
01:05:45.000 : en:Chapter 07
01:15:10.000 : en:Chapter 08
01:26:19.000 : en:Chapter 09
01:37:34.000 : en:Chapter 10
01:50:18.000 : en:Chapter 11
01:58:02.000 : en:Chapter 12


Трекер:  [ 18-Апр-2014 21:55 ]

  

Скачать .torrent

Размер .torrent файла 23 KB


Размер: 4.47 GB
Хэш (hash) релиза: f88c828088c8eb4cd3171c50a6375931e80a0874
Подписка на обновления:

Еще никто не оставлял запись к записи скачать торрент Мгновение любви Here . Будь первым!

!Обратная связь