Скачать через торрент Наблюдатель Сторож Фильм бесплатно в хорошем качестве torrent

Скачивайте на UnionPeer.org фильмы через торрент без регистрации. Новинки кино в хорошем качестве через торрент. На UnionPeer.org можно скачать через торрент фильмы 2014 и 2015 годов. Самые новые фильмы.

Скачать торрент Наблюдатель Сторож бесплатно через .torrent фильм мультфильм сериал

Статистика раздачи
Размер:  1.45 GB   |    Зарегистрирован:  6 лет 1 месяц   |    .torrent скачан:  57 раз   |   
Раздают:  1  
 

Скачать Наблюдатель / Сторож / Le guetteur (Микеле Плачидо / Michele Placido) [2012, Франция, Бельгия, Италия, криминал, BDRip] DVO (НТВ+) + Original Fra + subs (Rus, Eng) через torrent

 
Timeweb Many GEOs Sprinthost
загрузка...
 
Автор Сообщение

Galfimbul ghost

avatar Galfimbul ghost


Наблюдатель / Сторож / Le guetteur
Год выпуска: 2012
Выпущено: Франция, Бельгия, Италия
Жанр: криминал
Продолжительность: 01:28:35
Перевод: Профессиональный (двухголосый закадровый) НТВ+
+ Оригинальная французская звуковая дорожка
Субтитры: Русские (Katya67 и MariaP), английские (внешние srt*)
Режиссер: Микеле Плачидо / Michele Placido
В ролях: Даниель Отой, Матьё Кассовиц, Оливье Гурме, Франсис Рено, Николя Бриансон, Жером Пули, Виоланте Плачидо, Лука Арджентеро, Арли Жовер, Кристиан Эк
О фильме: Комиссар Маттеи уже несколько месяцев преследует банду грабителей банков. Во время очередного ограбления банду вот-вот накроют, но уйти бандитам помогает таинственный снайпер, без промаха ранящий полицейских. После анонимного звонка удаётся арестовать пресловутого снайпера, но тому удаётся бежать, чтобы вычислить предателя. Когда Маттеи узнаёт, что снайпер повинен в смерти его сына во время операции в Афганистане, дело становится личным.

Релиз:
Автор: kingsize87
Качество: BDRip (источник: arxivariys / BD-Remux / 1080p)
Формат: AVI
Видео: 720x304 (2.37:1), 24 fps, XviD build 65 ~ 1760 kbps avg, 0.34 bit/pixel
Аудио #1: 48 kHz, AC3 Dolby Digital, 2/0 (L,R), ~192.00 kbps avg rus
Аудио #2: 48 kHz, AC3 Dolby Digital, 3/2 (L,C,R,l,r) + LFE ch, ~448.00 kbps avg fra
Размер: 1489.65 Mb (1/3 DVD-R)
Скачать: Семпл

Формат : AVI
Формат/Информация : Audio Video Interleave
Размер файла : 1,45 Гбайт
Продолжительность : 1 ч. 28 м.
Общий поток : 2351 Кбит/сек
Название фильма : Наблюдатель / Сторож / Le guetteur (2012) BDRip
Режиссёр : kingsize87
Программа кодирования : VirtualDubMod 1.5.10.2 (build 2540/release)
Правообладатель : HQCLUB
Примечание : 25.05.2014

Видео
Идентификатор : 0
Формат : MPEG-4 Visual
Профиль формата : Advanced Simple@L5
Параметр BVOP формата : 1
Параметр QPel формата : Нет
Параметр GMC формата : Без точки перехода
Параметр матрицы формата : Выборочная
Идентификатор кодека : XVID
Идентификатор кодека/Подсказка : XviD
Продолжительность : 1 ч. 28 м.
Битрейт : 1761 Кбит/сек
Ширина : 720 пикселей
Высота : 304 пикселя
Соотношение сторон : 2,35:1
Частота кадров : 24,000 кадра/сек
Цветовое пространство : YUV
Субдискретизация насыщенности : 4:2:0
Битовая глубина : 8 бит
Тип развёртки : Прогрессивная
Метод сжатия : С потерями
Бит/(Пиксели*Кадры) : 0.335
Размер потока : 1,09 Гбайт (75%)
Библиотека кодирования : XviD 65

Аудио #1
Идентификатор : 1
Формат : AC-3
Формат/Информация : Audio Coding 3
Расширение режима : CM (complete main)
Параметр Endianness формата : Big
Идентификатор кодека : 2000
Продолжительность : 1 ч. 28 м.
Вид битрейта : Постоянный
Битрейт : 192 Кбит/сек
Каналы : 2 канала
Расположение каналов : Front: L R
Частота : 48,0 КГц
Битовая глубина : 16 бит
Метод сжатия : С потерями
Размер потока : 122 Мбайт (8%)
Выравнивание : Разделение по промежуткам
Продолжительность промежутка : 42 мс. (1,00 видеокадр)
Время предзагрузки промежутка : 500 мс.

Аудио #2
Идентификатор : 2
Формат : AC-3
Формат/Информация : Audio Coding 3
Расширение режима : CM (complete main)
Параметр Endianness формата : Big
Идентификатор кодека : 2000
Продолжительность : 1 ч. 28 м.
Вид битрейта : Постоянный
Битрейт : 384 Кбит/сек
Каналы : 6 каналов
Расположение каналов : Front: L C R, Side: L R, LFE
Частота : 48,0 КГц
Битовая глубина : 16 бит
Метод сжатия : С потерями
Размер потока : 243 Мбайт (16%)
Выравнивание : Разделение по промежуткам
Продолжительность промежутка : 42 мс. (1,00 видеокадр)
Время предзагрузки промежутка : 500 мс.



Внимание! AdBlock блокирует показ скриншотов, все вопросы к разработчикам )))
Трекер:  [ 01-Июн-2014 17:30 ]

  

Скачать .torrent

Размер .torrent файла 15 KB


Размер: 1.45 GB
Хэш (hash) релиза: b175ff7a194da47fd8cdbc0f78cf6c26e423104e
Подписка на обновления:

Торренты, похожие на Наблюдатель Сторож скачать торрент

Форум Название Автор Размер S L Добавлен
Зарубежные фильмы до 2016 ·· Наблюдатель / Сторож / Le Guetteur (Микеле Плачидо / Michele Placido) [2012, Франция, Бельгия, Италия, криминал, BDRip] [Open Matte] MVO (1 канал) + DVO (НТВ+) + Original (Fre) + Subs (Rus, Eng) Galfimbul ghost 16919029081.58 GB 0 0 1411416143

23:02

22-Сен-14

Зарубежные фильмы до 2016 ·· Наблюдатель / Сторож / Le Guetteur (Микеле Плачидо / Michele Placido) [2012, Франция, Бельгия, Италия, криминал, BDRip] MVO (1 канал) + DVO (НТВ+) + Original Fre Galfimbul ghost 15657881601.46 GB 0 0 1409544033

07:00

1-Сен-14

Зарубежные фильмы до 2016 ·· Наблюдатель / Сторож / Le guetteur (Микеле Плачидо) [2012, криминальный триллер, BDRip] [НТВ+] Galfimbul ghost 21853458952.04 GB 0 0 1373551705

17:08

11-Июл-13

Зарубежные фильмы до 2016 ·· Наблюдатель / Сторож / Le guetteur (Микеле Плачидо / Michele Placido) [2012, Триллер, BDRip-AVC] Galfimbul ghost 23508017192.19 GB 0 0 1373521222

08:40

11-Июл-13

Зарубежные фильмы до 2016 ·· Наблюдатель / Сторож / Le guetteur (Микеле Плачидо / Michele Placido) [2012, Франция, Бельгия, Италия, криминальный триллер, BDRip] DVO (НТВ+) Galfimbul ghost 15664107521.46 GB 0 0 1373445451

11:37

10-Июл-13

Зарубежные фильмы до 2016 ·· Наблюдатель / Сторож / Le guetteur (Микеле Плачидо / Michele Placido) [2012, Франция, Бельгия, Италия, криминальный триллер, BDRemux 1080p] DVO (НТВ+) + VO (den904) + Original (Fre) + Subs (Rus, Eng) Galfimbul ghost 2069893334619.28 GB 0 0 1373319391

00:36

9-Июл-13

Зарубежные фильмы до 2016 ·· Сторож / Наблюдатель / Le guetteur (Микеле Плачидо / Michele Placido) [2012, Франция, Бельгия, Италия, Боевик, Полицейская драма, DVD9(Custom)] DVO (НТВ+) + Sub Rus (katya67, MariaP) + Original Fre Galfimbul ghost 64896841616.04 GB 0 0 1376987824

11:37

20-Авг-13

Зарубежные фильмы до 2016 ·· Наблюдатель / Сторож / Снайпер / Le guetteur / The Lookout / Sniper (Микеле Плачидо / Michele Placido) [2012, Франция, Бельгия, Италия, криминальный триллер, DVB] DVO (НТВ+) Galfimbul ghost 11825430801.1 GB 0 0 1371287566

12:12

15-Июн-13

Superjob
dpd RU

Еще никто не оставлял запись к записи скачать торрент Наблюдатель Сторож . Будь первым!

!Обратная связь