Скачать через торрент Я солдат I am soldier Фильм бесплатно в хорошем качестве torrent

Скачивайте на UnionPeer.org фильмы через торрент без регистрации. Новинки кино в хорошем качестве через торрент. На UnionPeer.org можно скачать через торрент фильмы 2014 и 2015 годов. Самые новые фильмы.

Скачать торрент Я солдат I am soldier бесплатно через .torrent фильм мультфильм сериал

 
Автор Сообщение

Galfimbul

avatar Galfimbul


Я солдат / I am soldier

Год выпуска: 2014
Жанр: Боевик, военный
Выпущено: Великобритания, Tea Shop & Film Company
Режиссер: Ронни Томпсон
В ролях: Дункан Кэйси, Ли Чарльз, Ноэль Кларк, Филип Десмюль, Джо Иган, Майк Фьюри, Дэвид Гудман, Том Хьюз

О фильме: Многие пытаются попасть в полк британского спецназа SAS, но только лучшие могут это сделать. Сюжет сосредоточится на Микки который пройдет через каждую изнурительную стадию отбора, который не только развивает его физически, но и морально.


Файл
Качество: HDRip (AVC)
Видео: MPEG-4 AVC, 1821 Кбит/с, 1024x434
Аудио: Русский (AC3, 2 ch, 192 Кбит/с), английский (AC3, 6 ch, 448 Кбит/с)
Продолжительность: 01:27:57
Перевод: Любительский двухголосый [студия Zinko]
Субтитры: Английские
General
Unique ID : 246914619925516102118968237792359786792 (0xB9C206A9634E6C02AC50E651CF8EA928)
Complete name : C:I.am.soldier.2014.HDRip.AVC.ExKinoRay.mkv
Format : Matroska
Format version : Version 2
File size : 1.51 GiB
Duration : 1h 27mn
Overall bit rate : 2 461 Kbps
Movie name : I am soldier 2014 from ExKinoRay
Encoded date : UTC 2014-09-07 21:00:25
Writing application : mkvmerge v4.9.1 ('Ich will') built on Jul 11 2011 23:53:15
Writing library : libebml v1.2.1 + libmatroska v1.1.1

Video
ID : 1
Format : AVC
Format/Info : Advanced Video Codec
Format profile : High@L4.1
Format settings, CABAC : Yes
Format settings, ReFrames : 9 frames
Codec ID : V_MPEG4/ISO/AVC
Duration : 1h 27mn
Bit rate : 1 821 Kbps
Width : 1 024 pixels
Height : 434 pixels
Display aspect ratio : 2.35:1
Frame rate mode : Constant
Frame rate : 24.000 fps
Color space : YUV
Chroma subsampling : 4:2:0
Bit depth : 8 bits
Scan type : Progressive
Bits/(Pixel*Frame) : 0.171
Stream size : 1.09 GiB (72%)
Title : Enigma-Vladislav71
Writing library : x264 core 116 r2044 392e762
Encoding settings : cabac=1 / ref=9 / deblock=1:-3:-3 / analyse=0x3:0x113 / me=umh / subme=10 / psy=1 / psy_rd=1.00:0.20 / mixed_ref=1 / me_range=32 / chroma_me=1 / trellis=2 / 8x8dct=1 / cqm=0 / deadzone=21,11 / fast_pskip=0 / chroma_qp_offset=-3 / threads=12 / sliced_threads=0 / nr=0 / decimate=0 / interlaced=0 / bluray_compat=0 / constrained_intra=0 / bframes=9 / b_pyramid=2 / b_adapt=2 / b_bias=0 / direct=3 / weightb=1 / open_gop=0 / weightp=2 / keyint=240 / keyint_min=24 / scenecut=40 / intra_refresh=0 / rc=2pass / mbtree=0 / bitrate=1821 / ratetol=1.0 / qcomp=0.60 / qpmin=0 / qpmax=69 / qpstep=4 / cplxblur=20.0 / qblur=0.5 / ip_ratio=1.40 / pb_ratio=1.30 / aq=1:1.00
Default : Yes
Forced : No

Audio #1
ID : 2
Format : AC-3
Format/Info : Audio Coding 3
Mode extension : CM (complete main)
Format settings, Endianness : Big
Codec ID : A_AC3
Duration : 1h 27mn
Bit rate mode : Constant
Bit rate : 192 Kbps
Channel(s) : 2 channels
Channel positions : Front: L R
Sampling rate : 48.0 KHz
Bit depth : 16 bits
Compression mode : Lossy
Stream size : 121 MiB (8%)
Title : [студия Zinko]
Language : Russian
Default : Yes
Forced : No

Audio #2
ID : 3
Format : AC-3
Format/Info : Audio Coding 3
Mode extension : CM (complete main)
Format settings, Endianness : Big
Codec ID : A_AC3
Duration : 1h 27mn
Bit rate mode : Constant
Bit rate : 448 Kbps
Channel(s) : 6 channels
Channel positions : Front: L C R, Side: L R, LFE
Sampling rate : 48.0 KHz
Bit depth : 16 bits
Compression mode : Lossy
Stream size : 282 MiB (18%)
Language : English
Default : No
Forced : No

Text
ID : 4
Format : UTF-8
Codec ID : S_TEXT/UTF8
Codec ID/Info : UTF-8 Plain Text
Language : English
Default : No
Forced : No

Menu
00:00:00.000 : en:00:00:00.000
00:05:49.417 : en:00:05:49.417
00:12:18.792 : en:00:12:18.792
00:18:19.375 : en:00:18:19.375
00:25:26.542 : en:00:25:26.542
00:36:06.917 : en:00:36:06.917
00:44:28.542 : en:00:44:28.542
00:51:01.708 : en:00:51:01.708
01:04:43.333 : en:01:04:43.333
01:11:48.000 : en:01:11:48.000
01:16:55.542 : en:01:16:55.542
01:24:38.375 : en:01:24:38.375
Релиз от:

Авторы релиза:

Еще никто не оставлял запись к записи скачать торрент Я солдат I am soldier . Будь первым!

!Обратная связь