Скачать через торрент Династия Кеннеди The Kennedys Фильм бесплатно в хорошем качестве torrent

Скачивайте на UnionPeer.org фильмы через торрент без регистрации. Новинки кино в хорошем качестве через торрент. На UnionPeer.org можно скачать через торрент фильмы 2014 и 2015 годов. Самые новые фильмы.

Скачать торрент Династия Кеннеди The Kennedys бесплатно через .torrent фильм мультфильм сериал

Статистика раздачи
Размер:  25 MB   |    Зарегистрирован:  7 лет 5 месяцев   |    .torrent скачан:  70 раз   |   
Раздают:  1  
   
загрузка...
 
Автор Сообщение

L



Династия Кеннеди / The Kennedys


Год выпуска: 2011
Страна: США, Канада
Жанр: история
Продолжительность:
Перевод: Профессиональный (многоголосый, закадровый) /BBC Saint-Petersburg/
Русские субтитры: нет
Режиссер: Джон Кассар
В ролях:
Грег Киннер, Бэрри Пеппер, Кэти Холмс, Том Уилкинсон, Джэйк Бил, Ава Престон, Элиза Престон, Кристин Бут, Angela Besharah, Серж Уд ...
Описание:
Сюжет сериала строится вокруг семьи Кеннеди и событий, которые им довелось пережить в середине XX века.
Качество: HDTV 720p
Формат видео: MP4
Видео кодек: AVC
Аудио кодек: AAC
Видео: 1280×720, 29.412 fps, 1283 kbps avg, 0,046 bit/pixel
Аудио: AAC 44100Hz stereo 1411kbps

Код:

General
Complete name                    : E:\Династия Кеннеди (озвучка BBC Saint-Petersburg) (NewStudio.TV).mp4
Format                           : MPEG-4
Format profile                   : Base Media / Version 2
Codec ID                         : mp42
File size                        : 24.5 MiB
Duration                         : 2mn 25s
Overall bit rate                 : 1 417 Kbps
Encoded date                     : UTC 2011-03-26 09:59:36
Tagged date                      : UTC 2011-03-26 09:59:36

Video
ID                               : 1
Format                           : AVC
Format/Info                      : Advanced Video Codec
Format profile                   : High@L3.1
Format settings, CABAC           : Yes
Format settings, ReFrames        : 1 frame
Codec ID                         : avc1
Codec ID/Info                    : Advanced Video Coding
Duration                         : 2mn 25s
Bit rate mode                    : Variable
Bit rate                         : 1 283 Kbps
Maximum bit rate                 : 5 416 Kbps
Width                            : 1 280 pixels
Height                           : 720 pixels
Display aspect ratio             : 16:9
Frame rate mode                  : Variable
Frame rate                       : 30.000 fps
Minimum frame rate               :
Maximum frame rate               : 55.556 fps
Resolution                       : 8 bits
Colorimetry                      : 4:2:0
Scan type                        : Progressive
Bits/(Pixel*Frame)               : 0.046
Stream size                      : 22.2 MiB (91%)
Tagged date                      : UTC 2011-03-26 09:59:38

Audio
ID                               : 2
Format                           : AAC
Format/Info                      : Advanced Audio Codec
Format version                   : Version 4
Format profile                   : LC
Format settings, SBR             : No
Codec ID                         : 40
Duration                         : 2mn 25s
Bit rate mode                    : Variable
Bit rate                         : 128 Kbps
Maximum bit rate                 : 184 Kbps
Channel(s)                       : 2 channels
Channel positions                : L R
Sampling rate                    : 44.1 KHz
Stream size                      : 2.22 MiB (9%)
Title                            : (C) 2007 Google Inc. v08.13.2007.
Encoded date                     : UTC 2011-03-26 09:59:36
Tagged date                      : UTC 2011-03-26 09:59:38


Трекер:  [ 27-Мар-2011 21:40 ]

  

Скачать .torrent

Размер .torrent файла 8 KB


Размер: 25 MB
Хэш (hash) релиза: f3f4aae4f8844d608eee85ea9a28536c18318e37
Подписка на обновления:

Еще никто не оставлял запись к записи скачать торрент Династия Кеннеди The Kennedys . Будь первым!

!Обратная связь