Скачать через торрент музыку Boney M. - Gold бесплатно без регистрации torrent

Статистика раздачи
Размер:  479 MB   |    Зарегистрирован:  10 лет   |    .torrent скачан:  110 раз   |   
Раздают:  1  
 

Скачать (Disco) Boney M. - Gold (20 Super Hits) - 1992, FLAC (tracks+.cue), lossless через torrent

 
 
Автор Сообщение

L


Boney M. - Gold (20 Super Hits)

Жанр: Disco
Год выпуска диска: 1992
Производитель диска: Germany
Аудио кодек: FLAC
Тип рипа: tracks+.cue
Битрейт аудио: lossless
Продолжительность: 01:15:26

Трэклист:

01. Rivers Of Babylon (4:17)
02. Daddy Cool (3:27)
03. Sunny (3:57)
04. Brown Girl In The Ring (4:01)
05. Rasputin (4:26)
06. Ma Baker (4:06)
07. Hooray! Hooray! It's A Holi-Holiday (3:56)
08. Painter Man (3:17)
09. Belfast (3:28)
10. No Woman No Cry (4:19)
11. Mary's Boy Child , Oh My Lord (4:02)
12. Gotta Go Home (2:33)
13. Still I'm Sad (4:25)
14. NightFlight To Venus (3:50)
15. Felicidad (2:52)
16. El Lute (4:00)
17. Baby Do You Wanna Bump (2:27)
18. Kalimba De Luna (4:13)
19. Happy Song (3:58)
20. Mega Mix (Rivers of Babylon, Sunny, Daddy Cool, Ma Baker, Rasputin) (3:53)

Доп. информация:

Discogs: http://www.discogs.com/release/1120954
 
Exact Audio Copy V0.99 prebeta 4 from 23. January 2008

EAC extraction logfile from 12. October 2008, 11:56

Boney M / GOLD 20 Super Hits

Used drive : SONY DVD-ROM DDU1615 Adapter: 3 ID: 0

Read mode : SecureUtilize accurate stream : YesDefeat audio cache : YesMake use of C2 pointers : No

Read offset correction : 6Overread into Lead-In and Lead-Out : NoFill up missing offset samples with silence : YesDelete leading and trailing silent blocks : NoNull samples used in CRC calculations : YesUsed interface : Installed external ASPI interfaceGap handling : Appended to previous track

Used output format : Internal WAV RoutinesSample format : 44.100 Hz; 16 Bit; Stereo

TOC of the extracted CD

Track | Start | Length | Start sector | End sector --------------------------------------------------------- 1 | 0:00.00 | 4:16.55 | 0 | 19254 2 | 4:16.55 | 3:26.70 | 19255 | 34774 3 | 7:43.50 | 3:57.25 | 34775 | 52574 4 | 11:41.00 | 4:00.67 | 52575 | 70641 5 | 15:41.67 | 4:25.68 | 70642 | 90584 6 | 20:07.60 | 4:06.00 | 90585 | 109034 7 | 24:13.60 | 3:55.45 | 109035 | 126704 8 | 28:09.30 | 3:17.10 | 126705 | 141489 9 | 31:26.40 | 3:28.30 | 141490 | 157119 10 | 34:54.70 | 4:18.47 | 157120 | 176516 11 | 39:13.42 | 4:01.73 | 176517 | 194664 12 | 43:15.40 | 2:32.40 | 194665 | 206104 13 | 45:48.05 | 4:25.27 | 206105 | 226006 14 | 50:13.32 | 3:49.70 | 226007 | 243251 15 | 54:03.27 | 2:52.35 | 243252 | 256186 16 | 56:55.62 | 3:59.38 | 256187 | 274149 17 | 60:55.25 | 2:27.00 | 274150 | 285174 18 | 63:22.25 | 4:12.70 | 285175 | 304144 19 | 67:35.20 | 3:58.05 | 304145 | 321999 20 | 71:33.25 | 3:53.00 | 322000 | 339474

Track 1

Filename D:\Works\CD-Rips\Boney M - 1992 - GOLD 20 Super Hits\Boney M - 1992 - GOLD 20 Super Hits\01. Boney M - Rivers Of Babylon.wav

Pre-gap length 0:00:02.00

Peak level 85.5 % Track quality 100.0 % Test CRC B43A470B Copy CRC B43A470B Accurately ripped (confidence 6) [CF56568E] Copy OK

Track 2

Filename D:\Works\CD-Rips\Boney M - 1992 - GOLD 20 Super Hits\Boney M - 1992 - GOLD 20 Super Hits\02. Boney M - Daddy Cool.wav

Peak level 94.3 % Track quality 100.0 % Test CRC F7C4DC13 Copy CRC F7C4DC13 Accurately ripped (confidence 6) [589B7A53] Copy OK

Track 3

Filename D:\Works\CD-Rips\Boney M - 1992 - GOLD 20 Super Hits\Boney M - 1992 - GOLD 20 Super Hits\03. Boney M - Sunny.wav

Peak level 81.6 % Track quality 100.0 % Test CRC BC5C3639 Copy CRC BC5C3639 Accurately ripped (confidence 6) [E73F1470] Copy OK

Track 4

Filename D:\Works\CD-Rips\Boney M - 1992 - GOLD 20 Super Hits\Boney M - 1992 - GOLD 20 Super Hits\04. Boney M - Brown Girl In The Ring.wav

Peak level 96.3 % Track quality 100.0 % Test CRC 64C0F398 Copy CRC 64C0F398 Accurately ripped (confidence 6) [5CF6BB92] Copy OK

Track 5

Filename D:\Works\CD-Rips\Boney M - 1992 - GOLD 20 Super Hits\Boney M - 1992 - GOLD 20 Super Hits\05. Boney M - Rasputin.wav

Peak level 94.2 % Track quality 100.0 % Test CRC E57B2880 Copy CRC E57B2880 Accurately ripped (confidence 6) [38C4C59D] Copy OK

Track 6

Filename D:\Works\CD-Rips\Boney M - 1992 - GOLD 20 Super Hits\Boney M - 1992 - GOLD 20 Super Hits\06. Boney M - Ma Baker.wav

Peak level 81.3 % Track quality 100.0 % Test CRC 8948A72D Copy CRC 8948A72D Accurately ripped (confidence 6) [38FB8884] Copy OK

Track 7

Filename D:\Works\CD-Rips\Boney M - 1992 - GOLD 20 Super Hits\Boney M - 1992 - GOLD 20 Super Hits\07. Boney M - Hooray! Hooray! It's A Holi-Holiday.wav

Peak level 91.5 % Track quality 100.0 % Test CRC 44385176 Copy CRC 44385176 Accurately ripped (confidence 6) [973EFC2A] Copy OK

Track 8

Filename D:\Works\CD-Rips\Boney M - 1992 - GOLD 20 Super Hits\Boney M - 1992 - GOLD 20 Super Hits\08. Boney M - Painter Man.wav

Peak level 88.6 % Track quality 100.0 % Test CRC D715B9D7 Copy CRC D715B9D7 Accurately ripped (confidence 6) [390DA1A2] Copy OK

Track 9

Filename D:\Works\CD-Rips\Boney M - 1992 - GOLD 20 Super Hits\Boney M - 1992 - GOLD 20 Super Hits\09. Boney M - Belfast.wav

Peak level 85.1 % Track quality 100.0 % Test CRC 72E5B913 Copy CRC 72E5B913 Accurately ripped (confidence 6) [392008DA] Copy OK

Track 10

Filename D:\Works\CD-Rips\Boney M - 1992 - GOLD 20 Super Hits\Boney M - 1992 - GOLD 20 Super Hits\10. Boney M - No Woman No Cry.wav

Pre-gap length 0:00:00.58

Peak level 89.8 % Track quality 100.0 % Test CRC E1262B9A Copy CRC E1262B9A Accurately ripped (confidence 6) [E3E1E3CD] Copy OK

Track 11

Filename D:\Works\CD-Rips\Boney M - 1992 - GOLD 20 Super Hits\Boney M - 1992 - GOLD 20 Super Hits\11. Boney M - Mary's Boy Child , Oh My Lord.wav

Pre-gap length 0:00:00.27

Peak level 94.1 % Track quality 100.0 % Test CRC 153E7266 Copy CRC 153E7266 Accurately ripped (confidence 6) [144979F6] Copy OK

Track 12

Filename D:\Works\CD-Rips\Boney M - 1992 - GOLD 20 Super Hits\Boney M - 1992 - GOLD 20 Super Hits\12. Boney M - Gotta Go Home.wav

Peak level 73.4 % Track quality 100.0 % Test CRC 652188AC Copy CRC 652188AC Accurately ripped (confidence 6) [53DD2022] Copy OK

Track 13

Filename D:\Works\CD-Rips\Boney M - 1992 - GOLD 20 Super Hits\Boney M - 1992 - GOLD 20 Super Hits\13. Boney M - Still I'm Sad.wav

Peak level 69.6 % Track quality 100.0 % Test CRC 5D9F69AC Copy CRC 5D9F69AC Accurately ripped (confidence 5) [1BD22518] Copy OK

Track 14

Filename D:\Works\CD-Rips\Boney M - 1992 - GOLD 20 Super Hits\Boney M - 1992 - GOLD 20 Super Hits\14. Boney M - NightFlight To Venus.wav

Peak level 88.5 % Track quality 100.0 % Test CRC 1914F164 Copy CRC 1914F164 Accurately ripped (confidence 6) [21634A1E] Copy OK

Track 15

Filename D:\Works\CD-Rips\Boney M - 1992 - GOLD 20 Super Hits\Boney M - 1992 - GOLD 20 Super Hits\15. Boney M - Felicidad.wav

Peak level 87.1 % Track quality 100.0 % Test CRC B1198E52 Copy CRC B1198E52 Accurately ripped (confidence 5) [61CA9E0A] Copy OK

Track 16

Filename D:\Works\CD-Rips\Boney M - 1992 - GOLD 20 Super Hits\Boney M - 1992 - GOLD 20 Super Hits\16. Boney M - El Lute.wav

Peak level 76.3 % Track quality 100.0 % Test CRC CEB480AE Copy CRC CEB480AE Accurately ripped (confidence 5) [9B759631] Copy OK

Track 17

Filename D:\Works\CD-Rips\Boney M - 1992 - GOLD 20 Super Hits\Boney M - 1992 - GOLD 20 Super Hits\17. Boney M - Baby Do You Wanna Bump.wav

Pre-gap length 0:00:00.65

Peak level 89.9 % Track quality 100.0 % Test CRC 0CB05487 Copy CRC 0CB05487 Accurately ripped (confidence 6) [C157B8BE] Copy OK

Track 18

Filename D:\Works\CD-Rips\Boney M - 1992 - GOLD 20 Super Hits\Boney M - 1992 - GOLD 20 Super Hits\18. Boney M - Kalimba De Luna.wav

Peak level 88.2 % Track quality 100.0 % Test CRC BFB95BA6 Copy CRC BFB95BA6 Accurately ripped (confidence 5) [49EC17A7] Copy OK

Track 19

Filename D:\Works\CD-Rips\Boney M - 1992 - GOLD 20 Super Hits\Boney M - 1992 - GOLD 20 Super Hits\19. Boney M - Happy Song.wav

Peak level 87.3 % Track quality 99.9 % Test CRC 173EFC4A Copy CRC 173EFC4A Accurately ripped (confidence 6) [B0899680] Copy OK

Track 20

Filename D:\Works\CD-Rips\Boney M - 1992 - GOLD 20 Super Hits\Boney M - 1992 - GOLD 20 Super Hits\20. Boney M - Mega Mix (Rivers of Babylon, Sunny, Daddy Cool, Ma Baker, Rasputin).wav

Peak level 80.3 % Track quality 100.0 % Test CRC DB991703 Copy CRC DB991703 Accurately ripped (confidence 5) [C2F23010] Copy OK

All tracks accurately ripped

No errors occurred

End of status report
AUDIOCHECKER v2.0 beta (build 457) - by Dester - opdester@freemail.hu
~~~~~~~~~~~~~~~~~~~~~~~~~~~~~~~~~~
-=== DO NOT EDIT THIS FILE! ===-

Path: ...\Boney M - 1992 - GOLD 20 Super Hits tracks

001 -=- 01. Boney M - Rivers Of Babylon.wav -=- CDDA (100%)
002 -=- 02. Boney M - Daddy Cool.wav -=- CDDA (100%)
003 -=- 03. Boney M - Sunny.wav -=- CDDA (100%)
004 -=- 04. Boney M - Brown Girl In The Ring.wav -=- CDDA (99%)
005 -=- 05. Boney M - Rasputin.wav -=- CDDA (100%)
006 -=- 06. Boney M - Ma Baker.wav -=- CDDA (100%)
007 -=- 07. Boney M - Hooray! Hooray! It's A Holi-Holiday.wav -=- CDDA (100%)
008 -=- 08. Boney M - Painter Man.wav -=- CDDA (100%)
009 -=- 09. Boney M - Belfast.wav -=- CDDA (99%)
010 -=- 10. Boney M - No Woman No Cry.wav -=- CDDA (100%)
011 -=- 11. Boney M - Mary's Boy Child , Oh My Lord.wav -=- CDDA (100%)
012 -=- 12. Boney M - Gotta Go Home.wav -=- CDDA (100%)
013 -=- 13. Boney M - Still I'm Sad.wav -=- CDDA (100%)
014 -=- 14. Boney M - NightFlight To Venus.wav -=- CDDA (100%)
015 -=- 15. Boney M - Felicidad.wav -=- CDDA (100%)
016 -=- 16. Boney M - El Lute.wav -=- MPEG (95%)
017 -=- 17. Boney M - Baby Do You Wanna Bump.wav -=- CDDA (100%)
018 -=- 18. Boney M - Kalimba De Luna.wav -=- CDDA (100%)
019 -=- 19. Boney M - Happy Song.wav -=- MPEG (95%)
020 -=- 20. Boney M - Mega Mix (Rivers of Babylon, Sunny, Daddy Cool, Ma Baker, Rasputin).wav -=- MPEG (85%)

Summary 86,15% CDDA

194043572


Внимание! AdBlock блокирует показ скриншотов, все вопросы к разработчикам )))
Трекер:  [ 30-Мар-2011 16:45 ]

  

Скачать .torrent

Размер .torrent файла 21 KB


Размер: 479 MB
Хэш (hash) релиза: 177beb8272c556153358c204f5345fa33251fd05

Еще никто не оставлял запись к записи скачать торрент Boney M. - Gold . Будь первым!

!Обратная связь