Скачать через торрент музыку Boney M - Let It All Be Music - The Party Album бесплатно без регистрации torrent

Статистика раздачи
Размер:  1.03 GB   |    Зарегистрирован:  11 лет   |    .torrent скачан:  94 раза   |   
Раздают:  1  
 

Скачать (Disco) Boney M - Let It All Be Music - The Party Album (2CD) - 2009, APE (image+.cue), lossless через torrent

 
 
Автор Сообщение

L


Boney M - Let It All Be Music - The Party Album (2CD)

Жанр: Disco
Год выпуска диска: 2009
Производитель диска: Germany
Аудио кодек: APE
Тип рипа: image+.cue
Битрейт аудио: lossless
Продолжительность: 2:35:40



Сборник выпущен Sony Music 8 мая 2009 года
отмеченное * - версии, не издавашиеся ранее на CD
отмеченное ** - не издавалось ранее
1. Let It All Be Music *
2. Gotta Go Home *
3. Hooray! Hooray! It' s A Holi-Holiday
4. Daddy Cool
5. Belfast
6. A Woman Can Change A Man
7. Rivers Of Babylon
8. Bahama Mama - Long Version
9. Brown Girl In The Ring
10. Ma Baker
11. King Of The Road
12. Painter Man
13. Ribbons Of Blue
14. Sunny
15. Plantation Boy
16. Bye Bye Bluebird
17. Silent Lover
18. Rasputin - Maxi Version
1. Felicidad (Margherita)
2. Happy Song *
3. Kalimba De Luna
4. Dreadlock Holiday
5. Going Back West
6. Malaika Reinhören
7. I See A Boat On The River
8. Got Cha Loco
9. Barbarella Fortuneteller
10. Bang Bang Lulu *
11. African Moon *
12. Young, Free And Single *
13. My Friend Jack
14. Sample City
15. The Alibama
16. Exodus (Noah's Ark 2001) *
17. Kalimba De Luna - Instrumental Version
18. Felicidad America (Obama - Obama) - Long English **
Exact Audio Copy V0.99 prebeta 4 from 23. January 2008

Отчёт EAC об извлечении, выполненном 14. июня 2009, 14:14

Boney M / Let It All Be Music - The Party Album

Дисковод: Optiarc DVD RW AD-7220A Adapter: 1 ID: 1

Режим чтения : Достоверность
Использование точного потока : Да
Отключение кэша аудио : Да
Использование указателей C2 : Нет

Коррекция смещения при чтении : 6
Способность читать области Lead-in и Lead-out : Нет
Заполнение пропущенных сэмплов тишиной : Да
Удаление блоков с тишиной в начале и конце : Нет
При вычислениях CRC использовались нулевые сэмплы : Да
Интерфейс : Установленный внешний ASPI-интерфейс

Выходной формат : Внутренние WAV-операции
Формат сэмплов : 44.100 Гц; 16 бит; стерео

TOC извлечённого CD

Трек | Старт | Длительность | Начальный сектор | Конечный сектор
---------------------------------------------------------------------
1 | 0:00.00 | 5:10.46 | 0 | 23295
2 | 5:10.46 | 4:37.37 | 23296 | 44107
3 | 9:48.08 | 3:56.11 | 44108 | 61818
4 | 13:44.19 | 3:28.17 | 61819 | 77435
5 | 17:12.36 | 3:30.44 | 77436 | 93229
6 | 20:43.05 | 3:30.65 | 93230 | 109044
7 | 24:13.70 | 4:19.69 | 109045 | 128538
8 | 28:33.64 | 5:14.49 | 128539 | 152137
9 | 33:48.38 | 4:03.35 | 152138 | 170397
10 | 37:51.73 | 4:34.72 | 170398 | 191019
11 | 42:26.70 | 2:37.33 | 191020 | 202827
12 | 45:04.28 | 3:11.65 | 202828 | 217217
13 | 48:16.18 | 4:08.23 | 217218 | 235840
14 | 52:24.41 | 4:02.59 | 235841 | 254049
15 | 56:27.25 | 4:24.71 | 254050 | 273920
16 | 60:52.21 | 4:49.73 | 273921 | 295668
17 | 65:42.19 | 4:13.57 | 295669 | 314700
18 | 69:56.01 | 7:33.33 | 314701 | 348708

Характеристики диапазона извлечения и сообщения об ошибках

Выбранный диапазон

Имя файла C:\Documents and Settings\Администратор\Рабочий стол\http://рутраскер\раздачи\аудио\Boney M\Boney M - Let It All Be Music - The Party Album.wav

Пиковый уровень 99.5 %
Качество диапазона 100.0 %
CRC копии 22605DD4
Копирование... OK

Ошибок не произошло

Конец отчёта
Exact Audio Copy V0.99 prebeta 4 from 23. January 2008

Отчёт EAC об извлечении, выполненном 14. июня 2009, 14:36

Boney M / Let It All Be Music - The Party Album - CD 2

Дисковод: Optiarc DVD RW AD-7220A Adapter: 1 ID: 1

Режим чтения : Достоверность
Использование точного потока : Да
Отключение кэша аудио : Да
Использование указателей C2 : Нет

Коррекция смещения при чтении : 6
Способность читать области Lead-in и Lead-out : Нет
Заполнение пропущенных сэмплов тишиной : Да
Удаление блоков с тишиной в начале и конце : Нет
При вычислениях CRC использовались нулевые сэмплы : Да
Интерфейс : Установленный внешний ASPI-интерфейс

Выходной формат : Внутренние WAV-операции
Формат сэмплов : 44.100 Гц; 16 бит; стерео

TOC извлечённого CD

Трек | Старт | Длительность | Начальный сектор | Конечный сектор
---------------------------------------------------------------------
1 | 0:00.00 | 4:34.32 | 0 | 20581
2 | 4:34.32 | 4:20.42 | 20582 | 40123
3 | 8:54.74 | 4:33.17 | 40124 | 60615
4 | 13:28.16 | 4:52.51 | 60616 | 82566
5 | 18:20.67 | 4:16.17 | 82567 | 101783
6 | 22:37.09 | 5:01.52 | 101784 | 124410
7 | 27:38.61 | 4:42.09 | 124411 | 145569
8 | 32:20.70 | 3:35.64 | 145570 | 161758
9 | 35:56.59 | 2:55.29 | 161759 | 174912
10 | 38:52.13 | 3:31.69 | 174913 | 190806
11 | 42:24.07 | 4:14.51 | 190807 | 209907
12 | 46:38.58 | 4:20.22 | 209908 | 229429
13 | 50:59.05 | 4:41.62 | 229430 | 250566
14 | 55:40.67 | 3:43.70 | 250567 | 267361
15 | 59:24.62 | 3:10.67 | 267362 | 281678
16 | 62:35.54 | 4:38.46 | 281679 | 302574
17 | 67:14.25 | 6:29.16 | 302575 | 331765
18 | 73:43.41 | 5:30.05 | 331766 | 356520

Характеристики диапазона извлечения и сообщения об ошибках

Выбранный диапазон

Имя файла C:\Documents and Settings\Администратор\Рабочий стол\http://рутраскер\раздачи\аудио\Boney M\Boney M - Let It All Be Music - The Party Album - CD 2.wav

Пиковый уровень 100.0 %
Качество диапазона 100.0 %
CRC копии C9EABB0D
Копирование... OK

Ошибок не произошло

Конец отчёта


Внимание! AdBlock блокирует показ скриншотов, все вопросы к разработчикам )))
Трекер:  [ 30-Мар-2011 16:47 ]

  

Скачать .torrent

Размер .torrent файла 11 KB


Размер: 1.03 GB
Хэш (hash) релиза: 51fc97c563d55c520475834959dc3c5c611d37fd

Еще никто не оставлял запись к записи скачать торрент Boney M - Let It All Be Music - The Party Album . Будь первым!

!Обратная связь