Скачать через торрент музыку Boney M. 2000 - 20th Century Hits - 1999, FLAC бесплатно без регистрации torrent

Статистика раздачи
Размер:  576 MB   |    Зарегистрирован:  11 лет   |    .torrent скачан:  148 раз   |   
Раздают:  1  
 

Скачать (Disco) Boney M. 2000 - 20th Century Hits - 1999, FLAC (tracks+.cue), lossless через torrent

 
 
Автор Сообщение

L


Boney M. 2000 - 20th Century Hits

Жанр: Disco
Год выпуска диска: 1999
Производитель диска: Germany
Аудио кодек: FLAC
Тип рипа: tracks+.cue
Битрейт аудио: lossless
Продолжительность: 1:18:14

Трэклист:
01. Sunny [3:39]
02. Daddy Cool [3:52]
03. Ma Baker [3:52]
04. Rivers Of Babylon [3:19]
05. Gotta Go Home [3:21]
06. Rasputin [3:28]
07. Painter Man [3:00]
08. No Woman No Cry [3:22]
09. Brown Girl In The Ring [3:34]
10. Hooray! Hooray! It's A Holi-Holiday [3:23]
11. Kalimba De Luna [3:43]
12. Felicidad (Miami Ocean Drive Mix) [3:47]
13. Mary's Boy Child / Oh My Lord [3:44]
14. Caribbean Nightfever - Megamix (106 Bpm) [4:35]
15. Disco Megamix (130 Bpm) [6:26]
16. Sunny (Club Mix) [4:11]
17. Ma Baker (Club Mix) [4:32]
18. Daddy Cool (Club Mix) [4:09]
19. Rivers Of Babylon (Club Mix) [3:59]
20. Gotta Go Home (Club Mix) [4:18]
Exact Audio Copy V0.99 prebeta 5 from 4. May 2009

EAC extraction logfile from 30. July 2009, 20:59

Boney M. 2000 / 20th Century Hits

Used drive : PIONEER DVD-RW DVR-109 Adapter: 3 ID: 0

Read mode : Secure
Utilize accurate stream : Yes
Defeat audio cache : Yes
Make use of C2 pointers : No

Read offset correction : 48
Overread into Lead-In and Lead-Out : No
Fill up missing offset samples with silence : Yes
Delete leading and trailing silent blocks : No
Null samples used in CRC calculations : Yes
Used interface : Native Win32 interface for Win NT & 2000
Gap handling : Appended to previous track

Used output format : User Defined Encoder
Selected bitrate : 320 kBit/s
Quality : High
Add ID3 tag : No
Command line compressor : C:\Program Files\Exact Audio Copy\Flac\flac.exe
Additional command line options : -8 -V -T "ARTIST=%a" -T "TITLE=%t" -T "ALBUM=%g" -T "DATE=%y" -T "TRACKNUMBER=%n" -T "GENRE=%m" -T "COMMENT=EAC FLAC -8" %s

TOC of the extracted CD

Track | Start | Length | Start sector | End sector
---------------------------------------------------------
1 | 0:00.32 | 3:38.48 | 32 | 16429
2 | 3:39.05 | 3:52.30 | 16430 | 33859
3 | 7:31.35 | 3:51.55 | 33860 | 51239
4 | 11:23.15 | 3:19.07 | 51240 | 66171
5 | 14:42.22 | 3:20.58 | 66172 | 81229
6 | 18:03.05 | 3:28.27 | 81230 | 96856
7 | 21:31.32 | 3:00.05 | 96857 | 110361
8 | 24:31.37 | 3:21.40 | 110362 | 125476
9 | 27:53.02 | 3:34.33 | 125477 | 141559
10 | 31:27.35 | 3:23.07 | 141560 | 156791
11 | 34:50.42 | 3:42.45 | 156792 | 173486
12 | 38:33.12 | 3:46.68 | 173487 | 190504
13 | 42:20.05 | 3:43.62 | 190505 | 207291
14 | 46:03.67 | 4:35.23 | 207292 | 227939
15 | 50:39.15 | 6:26.17 | 227940 | 256906
16 | 57:05.32 | 4:10.63 | 256907 | 275719
17 | 61:16.20 | 4:31.52 | 275720 | 296096
18 | 65:47.72 | 4:09.00 | 296097 | 314771
19 | 69:56.72 | 3:59.28 | 314772 | 332724
20 | 73:56.25 | 4:18.32 | 332725 | 352106

Track 1

Filename C:\RIPs\01 – Sunny.wav

Pre-gap length 0:00:02.42

Peak level 100.0 %
Track quality 100.0 %
Test CRC 002C9AFA
Copy CRC 002C9AFA
Cannot be verified as accurate (confidence 13) [60205361], AccurateRip returned [CE45ACD2]
Copy OK

Track 2

Filename C:\RIPs\02 – Daddy Cool.wav

Pre-gap length 0:00:00.46

Peak level 97.7 %
Track quality 100.0 %
Test CRC 8DBD56F4
Copy CRC 8DBD56F4
Cannot be verified as accurate (confidence 12) [29A18B8A], AccurateRip returned [41C51074]
Copy OK

Track 3

Filename C:\RIPs\03 – Ma Baker.wav

Pre-gap length 0:00:00.73

Peak level 97.7 %
Track quality 100.0 %
Test CRC 1C7C13BE
Copy CRC 1C7C13BE
Cannot be verified as accurate (confidence 12) [82F8875B], AccurateRip returned [839AFF0F]
Copy OK

Track 4

Filename C:\RIPs\04 – Rivers Of Babylon.wav

Pre-gap length 0:00:00.44

Peak level 99.7 %
Track quality 100.0 %
Test CRC AD424CFE
Copy CRC AD424CFE
Cannot be verified as accurate (confidence 12) [6911C3D9], AccurateRip returned [33DE1DAB]
Copy OK

Track 5

Filename C:\RIPs\05 – Gotta Go Home.wav

Pre-gap length 0:00:01.16

Peak level 100.0 %
Track quality 100.0 %
Test CRC 58C1F836
Copy CRC 58C1F836
Cannot be verified as accurate (confidence 12) [6A2B24D0], AccurateRip returned [8AB000A7]
Copy OK

Track 6

Filename C:\RIPs\06 – Rasputin.wav

Pre-gap length 0:00:00.57

Peak level 99.7 %
Track quality 100.0 %
Test CRC 02E180D7
Copy CRC 02E180D7
Cannot be verified as accurate (confidence 12) [CE583399], AccurateRip returned [A4AA93B6]
Copy OK

Track 7

Filename C:\RIPs\07 – Painter Man.wav

Pre-gap length 0:00:00.73

Peak level 99.7 %
Track quality 100.0 %
Test CRC 38FA353D
Copy CRC 38FA353D
Cannot be verified as accurate (confidence 12) [574593A2], AccurateRip returned [CD975455]
Copy OK

Track 8

Filename C:\RIPs\08 – No Woman No Cry.wav

Pre-gap length 0:00:01.46

Peak level 99.7 %
Track quality 100.0 %
Test CRC A6BF5CF9
Copy CRC A6BF5CF9
Cannot be verified as accurate (confidence 12) [08B90522], AccurateRip returned [1867E235]
Copy OK

Track 9

Filename C:\RIPs\09 – Brown Girl In The Ring.wav

Pre-gap length 0:00:00.82

Peak level 99.7 %
Track quality 100.0 %
Test CRC 6621AD2D
Copy CRC 6621AD2D
Cannot be verified as accurate (confidence 12) [62D3EA41], AccurateRip returned [0DF15F7F]
Copy OK

Track 10

Filename C:\RIPs\10 – Hooray! Hooray! It's A Holi-Holiday.wav

Pre-gap length 0:00:00.73

Peak level 99.7 %
Track quality 100.0 %
Test CRC 55E4E80F
Copy CRC 55E4E80F
Cannot be verified as accurate (confidence 12) [6980383D], AccurateRip returned [B5574DE7]
Copy OK

Track 11

Filename C:\RIPs\11 – Kalimba De Luna.wav

Pre-gap length 0:00:01.09

Peak level 99.7 %
Track quality 100.0 %
Test CRC CB77CD58
Copy CRC CB77CD58
Cannot be verified as accurate (confidence 12) [43C06DD8], AccurateRip returned [86401EE1]
Copy OK

Track 12

Filename C:\RIPs\12 – Felicidad (Miami Ocean Drive Mix).wav

Pre-gap length 0:00:01.20

Peak level 99.7 %
Track quality 100.0 %
Test CRC 648BC7AD
Copy CRC 648BC7AD
Cannot be verified as accurate (confidence 12) [BAC2DFEE], AccurateRip returned [398A37AA]
Copy OK

Track 13

Filename C:\RIPs\13 – Mary's Boy Child , Oh My Lord.wav

Pre-gap length 0:00:01.13

Peak level 99.7 %
Track quality 100.0 %
Test CRC B6DECD03
Copy CRC B6DECD03
Cannot be verified as accurate (confidence 12) [ACB3C7D1], AccurateRip returned [0A3DE689]
Copy OK

Track 14

Filename C:\RIPs\14 – Caribbean Nightfever - Megamix (106 Bpm).wav

Pre-gap length 0:00:00.96

Peak level 99.7 %
Track quality 100.0 %
Test CRC 9B816ACE
Copy CRC 9B816ACE
Cannot be verified as accurate (confidence 12) [C4296730], AccurateRip returned [66934F6D]
Copy OK

Track 15

Filename C:\RIPs\15 – Disco Megamix (130 Bpm).wav

Pre-gap length 0:00:01.10

Peak level 99.7 %
Track quality 100.0 %
Test CRC 82F4C339
Copy CRC 82F4C339
Cannot be verified as accurate (confidence 12) [2E5AC00B], AccurateRip returned [7687603C]
Copy OK

Track 16

Filename C:\RIPs\16 – Sunny (Club Mix).wav

Pre-gap length 0:00:01.16

Peak level 99.7 %
Track quality 100.0 %
Test CRC 881C9BD6
Copy CRC 881C9BD6
Cannot be verified as accurate (confidence 12) [3711D56D], AccurateRip returned [69240594]
Copy OK

Track 17

Filename C:\RIPs\17 – Ma Baker (Club Mix).wav

Pre-gap length 0:00:00.86

Peak level 100.0 %
Track quality 100.0 %
Test CRC 92FF6F38
Copy CRC 92FF6F38
Cannot be verified as accurate (confidence 12) [285A2BBF], AccurateRip returned [0AE23C58]
Copy OK

Track 18

Filename C:\RIPs\18 – Daddy Cool (Club Mix).wav

Pre-gap length 0:00:00.42

Peak level 100.0 %
Track quality 100.0 %
Test CRC BF36A7F8
Copy CRC BF36A7F8
Cannot be verified as accurate (confidence 12) [ADE1CC4E], AccurateRip returned [D2D14DBD]
Copy OK

Track 19

Filename C:\RIPs\19 – Rivers Of Babylon (Club Mix).wav

Pre-gap length 0:00:00.69

Peak level 99.7 %
Track quality 100.0 %
Test CRC BFA21176
Copy CRC BFA21176
Cannot be verified as accurate (confidence 12) [546A0DF6], AccurateRip returned [CB23201F]
Copy OK

Track 20

Filename C:\RIPs\20 – Gotta Go Home (Club Mix).wav

Pre-gap length 0:00:01.10

Peak level 100.0 %
Track quality 100.0 %
Test CRC 02B19433
Copy CRC 02B19433
Cannot be verified as accurate (confidence 11) [954323CC], AccurateRip returned [9A727941]
Copy OK

No tracks could be verified as accurate
You may have a different pressing from the one(s) in the database

No errors occurred

End of status report
auCDtect: CD records authenticity detector, version 0.8.2
Copyright (c) 2004 Oleg Berngardt. All rights reserved.
Copyright (c) 2004 Alexander Djourik. All rights reserved.
------------------------------------------------------------
Processing file: [01 Sunny.wav]

------------------------------------------------------------
This track looks like CDDA with probability 100%

------------------------------------------------------------
Processing file: [02 Daddy Cool.wav]

------------------------------------------------------------
This track looks like CDDA with probability 100%

------------------------------------------------------------
Processing file: [03 Ma Baker.wav]

------------------------------------------------------------
This track looks like CDDA with probability 100%

------------------------------------------------------------
Processing file: [04 Rivers Of Babylon.wav]

------------------------------------------------------------
This track looks like CDDA with probability 100%

------------------------------------------------------------
Processing file: [05 Gotta Go Home.wav]

------------------------------------------------------------
This track looks like CDDA with probability 100%

------------------------------------------------------------
Processing file: [06 Rasputin.wav]

------------------------------------------------------------
This track looks like CDDA with probability 100%

------------------------------------------------------------
Processing file: [07 Painter Man.wav]

------------------------------------------------------------
This track looks like CDDA with probability 100%

------------------------------------------------------------
Processing file: [08 No Woman No Cry.wav]

------------------------------------------------------------
This track looks like CDDA with probability 100%

------------------------------------------------------------
Processing file: [09 Brown Girl In The Ring.wav]

------------------------------------------------------------
This track looks like CDDA with probability 100%

------------------------------------------------------------
Processing file: [10 Hooray! Hooray! It's A Holi-Holiday.wav]

------------------------------------------------------------
This track looks like CDDA with probability 100%

------------------------------------------------------------
Processing file: [11 Kalimba De Luna.wav]

------------------------------------------------------------
This track looks like CDDA with probability 100%

------------------------------------------------------------
Processing file: [12 Felicidad (Miami Ocean Drive Mix).wav]

------------------------------------------------------------
This track looks like CDDA with probability 99%

------------------------------------------------------------
Processing file: [13 Mary's Boy Child _ Oh My Lord.wav]

------------------------------------------------------------
This track looks like CDDA with probability 100%

------------------------------------------------------------
Processing file: [14 Caribbean Nightfever - Megamix (106 Bpm).wav]

------------------------------------------------------------
This track looks like CDDA with probability 100%

------------------------------------------------------------
Processing file: [15 Disco Megamix (130 Bpm).wav]

------------------------------------------------------------
This track looks like CDDA with probability 99%

------------------------------------------------------------
Processing file: [16 Sunny (Club Mix).wav]

------------------------------------------------------------
This track looks like CDDA with probability 100%

------------------------------------------------------------
Processing file: [17 Ma Baker (Club Mix).wav]

------------------------------------------------------------
This track looks like CDDA with probability 100%

------------------------------------------------------------
Processing file: [18 Daddy Cool (Club Mix).wav]

------------------------------------------------------------
This track looks like CDDA with probability 100%

------------------------------------------------------------
Processing file: [19 Rivers Of Babylon (Club Mix).wav]

------------------------------------------------------------
This track looks like CDDA with probability 100%

------------------------------------------------------------
Processing file: [20 Gotta Go Home (Club Mix).wav]

------------------------------------------------------------
This track looks like CDDA with probability 100%


Внимание! AdBlock блокирует показ скриншотов, все вопросы к разработчикам )))
Трекер:  [ 30-Мар-2011 16:48 ]

  

Скачать .torrent

Размер .torrent файла 14 KB


Размер: 576 MB
Хэш (hash) релиза: b1884e5e171d73a2624adc65e763debca7b0d13a

Еще никто не оставлял запись к записи скачать торрент Boney M. 2000 - 20th Century Hits - 1999, FLAC . Будь первым!

!Обратная связь