Скачать через торрент музыку Boney M. - Hit Collection бесплатно без регистрации torrent

Статистика раздачи
Размер:  1.15 GB   |    Зарегистрирован:  11 лет   |    .torrent скачан:  158 раз   |   
Раздают:  1  
 

Скачать (Disco) Boney M. - Hit Collection (3CD Box-set) - 1996, APE (image+.cue), lossless через torrent

 
 
Автор Сообщение

L


Boney M. - Hit Collection (3CD Box-set)

Жанр: Disco
Год выпуска диска: 1996
Производитель диска: BMG (EC)
Каталожный номер: 74321 31562 2
Аудио кодек: APE
Тип рипа: image+.cue
Битрейт аудио: lossless
Продолжительность: 47:07 + 51:38 + 49:14
01. Happy Songs
02. Hooray! Hooray!
03. Kalimba De Luna
04. Children Of Paradise
05. Brown Girl In The Ring
06. Felicidad
07. Malaika
08. Take The Heat Off Me
09. Gotta Go Home
10. The Calendar Song (January, February, March)
11. My Cherie Amor
12. Barbarella Fortuneteller
13. Jambo - Hakuna Matata (No Problems)
14. Bang Bang Lulu
Exact Audio Copy V0.99 prebeta 4 from 23. January 2008

EAC extraction logfile from 24. July 2009, 17:06

Boney M. / Hit Collection (vol. 1). Happy Songs

Used drive : _NEC DVD_RW ND-3500AG Adapter: 1 ID: 1

Read mode : Secure
Utilize accurate stream : Yes
Defeat audio cache : Yes
Make use of C2 pointers : No

Read offset correction : 48
Overread into Lead-In and Lead-Out : No
Fill up missing offset samples with silence : Yes
Delete leading and trailing silent blocks : No
Null samples used in CRC calculations : No
Used interface : Native Win32 interface for Win NT & 2000

Used output format : Internal WAV Routines
Sample format : 44.100 Hz; 16 Bit; Stereo

TOC of the extracted CD

Track | Start | Length | Start sector | End sector
---------------------------------------------------------
1 | 0:00.32 | 3:30.63 | 32 | 15844
2 | 3:31.20 | 3:38.67 | 15845 | 32261
3 | 7:10.12 | 3:49.05 | 32262 | 49441
4 | 10:59.17 | 2:51.53 | 49442 | 62319
5 | 13:50.70 | 3:04.62 | 62320 | 76181
6 | 16:55.57 | 2:54.23 | 76182 | 89254
7 | 19:50.05 | 3:28.30 | 89255 | 104884
8 | 23:18.35 | 4:49.22 | 104885 | 126581
9 | 28:07.57 | 3:47.08 | 126582 | 143614
10 | 31:54.65 | 2:24.22 | 143615 | 154436
11 | 34:19.12 | 3:59.70 | 154437 | 172431
12 | 38:19.07 | 2:56.13 | 172432 | 185644
13 | 41:15.20 | 2:50.42 | 185645 | 198436
14 | 44:05.62 | 3:00.58 | 198437 | 211994

Range status and errors

Selected range

Filename E:\Аудио\Рип\Boney M\1996.xx.xx-Hit Collection (vol. 1). Happy Songs\CDImage.wav

Peak level 99.0 %
Range quality 100.0 %
Copy CRC 3FADE574
Copy OK

No errors occurred

AccurateRip summary

Track 1 cannot be verified as accurate (confidence 5) [1C7656DD], AccurateRip returned [46C59C31]
Track 2 cannot be verified as accurate (confidence 5) [B66015AD], AccurateRip returned [AE4179D3]
Track 3 cannot be verified as accurate (confidence 5) [EA370852], AccurateRip returned [A86F9F34]
Track 4 cannot be verified as accurate (confidence 5) [27C7A79C], AccurateRip returned [51927F62]
Track 5 cannot be verified as accurate (confidence 5) [423BBA5C], AccurateRip returned [B2B5D4AC]
Track 6 cannot be verified as accurate (confidence 5) [E413634B], AccurateRip returned [9C391A1D]
Track 7 cannot be verified as accurate (confidence 5) [CAD35CAD], AccurateRip returned [E18FE3A5]
Track 8 cannot be verified as accurate (confidence 5) [ADBEA163], AccurateRip returned [65BC44F7]
Track 9 cannot be verified as accurate (confidence 5) [83495EEC], AccurateRip returned [3D4934F8]
Track 10 cannot be verified as accurate (confidence 5) [C8362A6D], AccurateRip returned [527A5613]
Track 11 cannot be verified as accurate (confidence 5) [911D55EB], AccurateRip returned [FE9A1FF7]
Track 12 cannot be verified as accurate (confidence 5) [546D6380], AccurateRip returned [5CC08B32]
Track 13 cannot be verified as accurate (confidence 5) [F1868E10], AccurateRip returned [73657594]
Track 14 cannot be verified as accurate (confidence 5) [48370F8B], AccurateRip returned [37A230A7]

No tracks could be verified as accurate
You may have a different pressing from the one(s) in the database

End of status report
01. Daddy Cool
02. Sunny
03. Love For Sale
04. Motherless Child
05. No Woman No Cry
06. Dreadlock Holiday
07. Fever
08. Hold On I'm Coming
09. Rivers Of Babylon
10. Boonoonoonoos
11. Voodoonight
12. I Feel Good
13. Bel Ami
14. Gloria Can You Waddle
Exact Audio Copy V0.99 prebeta 4 from 23. January 2008

EAC extraction logfile from 24. July 2009, 19:46

Boney M / Hit Collection (vol. 2). Daddy Cool

Used drive : _NEC DVD_RW ND-3500AG Adapter: 1 ID: 1

Read mode : Secure
Utilize accurate stream : Yes
Defeat audio cache : Yes
Make use of C2 pointers : No

Read offset correction : 48
Overread into Lead-In and Lead-Out : No
Fill up missing offset samples with silence : Yes
Delete leading and trailing silent blocks : No
Null samples used in CRC calculations : No
Used interface : Native Win32 interface for Win NT & 2000

Used output format : Internal WAV Routines
Sample format : 44.100 Hz; 16 Bit; Stereo

TOC of the extracted CD

Track | Start | Length | Start sector | End sector
---------------------------------------------------------
1 | 0:00.32 | 3:29.65 | 32 | 15771
2 | 3:30.22 | 4:02.55 | 15772 | 33976
3 | 7:33.02 | 4:15.13 | 33977 | 53114
4 | 11:48.15 | 4:18.42 | 53115 | 72506
5 | 16:06.57 | 3:32.45 | 72507 | 88451
6 | 19:39.27 | 4:18.70 | 88452 | 107871
7 | 23:58.22 | 4:00.55 | 107872 | 125926
8 | 27:59.02 | 3:37.48 | 125927 | 142249
9 | 31:36.50 | 4:00.15 | 142250 | 160264
10 | 35:36.65 | 2:13.50 | 160265 | 170289
11 | 37:50.40 | 3:32.27 | 170290 | 186216
12 | 41:22.67 | 3:05.48 | 186217 | 200139
13 | 44:28.40 | 3:12.15 | 200140 | 214554
14 | 47:40.55 | 3:57.15 | 214555 | 232344

Range status and errors

Selected range

Filename E:\Аудио\Рип\Boney M\1996.xx.xx-Hit Collection (vol. 2). Daddy Cool\CDImage.wav

Peak level 99.0 %
Range quality 100.0 %
Copy CRC 8D5D9E70
Copy OK

No errors occurred

AccurateRip summary

Track 1 cannot be verified as accurate (confidence 6) [E1BB9099], AccurateRip returned [A2938C1C]
Track 2 cannot be verified as accurate (confidence 6) [D69D8B47], AccurateRip returned [112E4F5F]
Track 3 cannot be verified as accurate (confidence 6) [EC8DE287], AccurateRip returned [6D9B990E]
Track 4 cannot be verified as accurate (confidence 6) [322C14B4], AccurateRip returned [30605A27]
Track 5 cannot be verified as accurate (confidence 6) [2A5C8C6A], AccurateRip returned [CB34CEA0]
Track 6 cannot be verified as accurate (confidence 6) [60090921], AccurateRip returned [4957C625]
Track 7 cannot be verified as accurate (confidence 5) [E3866137], AccurateRip returned [3BD977DF]
Track 8 cannot be verified as accurate (confidence 6) [42ED33EB], AccurateRip returned [8937E2BF]
Track 9 cannot be verified as accurate (confidence 5) [A6A347F6], AccurateRip returned [513F9DDE]
Track 10 cannot be verified as accurate (confidence 5) [A684B6B7], AccurateRip returned [42C7E774]
Track 11 cannot be verified as accurate (confidence 5) [0950B15E], AccurateRip returned [9D3E26BE]
Track 12 cannot be verified as accurate (confidence 5) [FB0A48C4], AccurateRip returned [BCD19B3D]
Track 13 cannot be verified as accurate (confidence 5) [8A652068], AccurateRip returned [E6D80AD8]
Track 14 cannot be verified as accurate (confidence 5) [3AAA8E79], AccurateRip returned [3BD6D9AD]

No tracks could be verified as accurate
You may have a different pressing from the one(s) in the database

End of status report
01. Painter Man
02. Belfast
03. Living Like A Moviestar
04. Ma Baker
05. Plantation Boy
06. King Of The Road
07. Going Back West
08. Bahama Mama
09. Rasputin
10. Got A Man On My Mind
11. The Alibama
12. I See A Boat On The River
13. Gadda-Da-Vida
14. Nightflight To Venus
Exact Audio Copy V0.99 prebeta 4 from 23. January 2008

EAC extraction logfile from 24. July 2009, 19:32

Boney M. / Hit Collection (vol. 3). Painter Man

Used drive : _NEC DVD_RW ND-3500AG Adapter: 1 ID: 1

Read mode : Secure
Utilize accurate stream : Yes
Defeat audio cache : Yes
Make use of C2 pointers : No

Read offset correction : 48
Overread into Lead-In and Lead-Out : No
Fill up missing offset samples with silence : Yes
Delete leading and trailing silent blocks : No
Null samples used in CRC calculations : No
Used interface : Native Win32 interface for Win NT & 2000

Used output format : Internal WAV Routines
Sample format : 44.100 Hz; 16 Bit; Stereo

TOC of the extracted CD

Track | Start | Length | Start sector | End sector
---------------------------------------------------------
1 | 0:00.32 | 3:12.38 | 32 | 14469
2 | 3:12.70 | 3:31.25 | 14470 | 30319
3 | 6:44.20 | 2:58.10 | 30320 | 43679
4 | 9:42.30 | 4:07.50 | 43680 | 62254
5 | 13:50.05 | 4:26.07 | 62255 | 82211
6 | 18:16.12 | 2:37.28 | 82212 | 94014
7 | 20:53.40 | 3:12.37 | 94015 | 108451
8 | 24:06.02 | 3:19.30 | 108452 | 123406
9 | 27:25.32 | 4:27.55 | 123407 | 143486
10 | 31:53.12 | 3:24.35 | 143487 | 158821
11 | 35:17.47 | 3:11.60 | 158822 | 173206
12 | 38:29.32 | 3:53.35 | 173207 | 190716
13 | 42:22.67 | 3:00.55 | 190717 | 204271
14 | 45:23.47 | 3:50.50 | 204272 | 221571

Range status and errors

Selected range

Filename E:\Аудио\Рип\Boney M\1996.xx.xx-Hit Collection (vol. 3). Painter Man\CDImage.wav

Peak level 99.0 %
Range quality 100.0 %
Copy CRC 09D94CCC
Copy OK

No errors occurred

AccurateRip summary

Track 1 accurately ripped (confidence 5) [36F8D14E]
Track 2 accurately ripped (confidence 5) [8ED1A644]
Track 3 accurately ripped (confidence 5) [3149FA05]
Track 4 accurately ripped (confidence 5) [0E18F918]
Track 5 accurately ripped (confidence 5) [D6132CCD]
Track 6 accurately ripped (confidence 5) [D4E23D19]
Track 7 accurately ripped (confidence 5) [DF9DEB85]
Track 8 accurately ripped (confidence 5) [24E01F7E]
Track 9 accurately ripped (confidence 5) [27649842]
Track 10 accurately ripped (confidence 5) [565A2B8F]
Track 11 accurately ripped (confidence 5) [373CD51A]
Track 12 accurately ripped (confidence 5) [8AE9BCB9]
Track 13 accurately ripped (confidence 6) [F6E99034]
Track 14 accurately ripped (confidence 5) [67A31C18]

All tracks accurately ripped

End of status report


Внимание! AdBlock блокирует показ скриншотов, все вопросы к разработчикам )))
Трекер:  [ 30-Мар-2011 16:49 ]

  

Скачать .torrent

Размер .torrent файла 13 KB


Размер: 1.15 GB
Хэш (hash) релиза: ff737621bf8981058fa0e862ba68b4179d85ca29

Еще никто не оставлял запись к записи скачать торрент Boney M. - Hit Collection . Будь первым!

!Обратная связь