Скачать порно через торрент Pornochic Collector - Diamond Бриллиант UnionPeer.org бесплатно онлайн HD качество

Скачать новое порно 2015, 2014 новинки через торрент UnionPeer.org

Порно торрент бесплатно ЮнионПир.орг

Статистика раздачи
Размер:  3.18 GB   |    Зарегистрирован:  4 года   |    .torrent скачан:  1171 раз   |   
Раздают:  1  
   
 
Автор Сообщение

Galfimbul ghost

avatar Galfimbul ghost


Pornochic Collector - Diamond / Бриллиант
Год производства: 2011 г.
Страна: France
Жанр: Anal, DP, Threesome, Compilation
Продолжительность: 02:12:27
Язык: Английский
Доп. языки: Французский

Режиссер: Hervу Bodilis
Студия: Marc Dorcel

В ролях: Angel Dark, Angelica, Barbara Voice, Elektra, Francesca Felucci, Ginger, Katsuni, Pellinia Morrison, Simone Style, Sophie Moone, Suzie Diamond, Vanessa Goldi, Veronica Da Souza, Zafira, Choky Ice, J.P.X, Lauro Giotto, Tristan Seagal, Yanick Shaft

Описание: Voici, dans cette vidéo unique, le best of des plus bons moments de la série "Porno chic". Hervé Bodilis s''applique à filmer le meilleur et ce avec les plus grandes vedettes du classé X rien que pour vous. Toutes vont se dévoiler entre hard et chic : Jane Darling, Katsuni, Melissa Lauren, Yasmine et tant d''autres. Préparez-vous à être envouté !

Тип HD видео: 720p
Качество видео: HDTV
Формат видео: MKV
Видео: MPEG4 Video (H264) 1280x720 25fps 3050kbps
Аудио 1: Dolby AC3 48000Hz stereo 192kbps
Аудио 2: Dolby AC3 48000Hz stereo 192kbps
Общее
Уникальный идентификатор : 209153477728236431798214794908496572813 (0x9D597E9C5546A48F83BD59C1D198318D)
Полное имя : E:\Pornochic.Diamond.720p.HDTV.[...].mkv
Формат : Matroska
Версия формата : Version 2
Размер файла : 3,18 Гбайт
Продолжительность : 2 ч. 12 м.
Общий поток : 3436 Кбит/сек
Дата кодирования : UTC 2017-03-18 16:23:29
Программа кодирования : mkvmerge v8.5.2 (''Crosses'') 32bit
Библиотека кодирования : libebml v1.3.3 + libmatroska v1.4.4

Видео
Идентификатор : 1
Формат : AVC
Формат/Информация : Advanced Video Codec
Профиль формата : High@L4.1
Параметр CABAC формата : Да
Параметр ReFrames формата : 5 кадров
Идентификатор кодека : V_MPEG4/ISO/AVC
Продолжительность : 2 ч. 12 м.
Битрейт : 3050 Кбит/сек
Ширина : 1280 пикселей
Высота : 720 пикселей
Соотношение сторон : 16:9
Режим частоты кадров : Постоянный
Частота кадров : 25,000 кадров/сек
Цветовое пространство : YUV
Субдискретизация насыщенности : 4:2:0
Битовая глубина : 8 бит
Тип развёртки : Прогрессивная
Бит/(Пиксели*Кадры) : 0.132
Размер потока : 2,82 Гбайт (89%)
Библиотека кодирования : x264 core 148 r2638 7599210
Настройки программы : cabac=1 / ref=5 / deblock=1:0:0 / analyse=0x3:0x133 / me=umh / subme=7 / psy=1 / psy_rd=1.00:0.00 / mixed_ref=1 / me_range=16 / chroma_me=1 / trellis=1 / 8x8dct=1 / cqm=0 / deadzone=21,11 / fast_pskip=0 / chroma_qp_offset=-2 / threads=12 / lookahead_threads=2 / sliced_threads=0 / nr=0 / decimate=1 / interlaced=0 / bluray_compat=0 / constrained_intra=0 / bframes=3 / b_pyramid=2 / b_adapt=2 / b_bias=0 / direct=3 / weightb=1 / open_gop=0 / weightp=2 / keyint=250 / keyint_min=25 / scenecut=40 / intra_refresh=0 / rc_lookahead=60 / rc=crf / mbtree=1 / crf=18.0 / qcomp=0.60 / qpmin=0 / qpmax=69 / qpstep=4 / ip_ratio=1.40 / aq=1:1.00
Default : Да
Forced : Нет

Аудио #1
Идентификатор : 2
Формат : AC-3
Формат/Информация : Audio Coding 3
Параметр Endianness формата : Big
Идентификатор кодека : A_AC3
Продолжительность : 2 ч. 12 м.
Вид битрейта : Постоянный
Битрейт : 192 Кбит/сек
Каналы : 2 канала
Расположение каналов : Front: L R
Частота : 48,0 КГц
Частота кадров : 31,250 кадров/сек (1536 spf)
Битовая глубина : 16 бит
Метод сжатия : С потерями
Размер потока : 182 Мбайт (6%)
Язык : English
ServiceKind/String : Complete Main
Default : Да
Forced : Нет

Аудио #2
Идентификатор : 3
Формат : AC-3
Формат/Информация : Audio Coding 3
Параметр Endianness формата : Big
Идентификатор кодека : A_AC3
Продолжительность : 2 ч. 12 м.
Вид битрейта : Постоянный
Битрейт : 192 Кбит/сек
Каналы : 2 канала
Расположение каналов : Front: L R
Частота : 48,0 КГц
Частота кадров : 31,250 кадров/сек (1536 spf)
Битовая глубина : 16 бит
Метод сжатия : С потерями
Размер потока : 182 Мбайт (6%)
Язык : French
ServiceKind/String : Complete Main
Default : Нет
Forced : Нет


Внимание! AdBlock блокирует показ скриншотов, все вопросы к разработчикам )))
Трекер:  [ 29-Апр-2017 05:30 ]

  

Скачать .torrent

Размер .torrent файла 16 KB


Размер: 3.18 GB
Хэш (hash) релиза: d4c545b82f03b1c63d18ab840fb506e01b9fff05

Еще никто не оставлял запись к записи скачать торрент Pornochic Collector - Diamond Бриллиант . Будь первым!

!Обратная связь