Скачать порно через торрент Школьница 3. Школьница наносит ответный удар UnionPeer.org бесплатно онлайн HD качество

Скачать новое порно 2015, 2014 новинки через торрент UnionPeer.org

Порно торрент бесплатно ЮнионПир.орг

Статистика раздачи
Размер:  1.4 GB   |    Зарегистрирован:  3 года 2 месяца   |    .torrent скачан:  1108 раз   |   
Раздают:  1  
 

Скачать Школьница 3. Школьница наносит ответный удар (Нестор Петрович, SP Company) [2003 г., Feature, DVDRip] через torrent

 
 
Автор Сообщение

Galfimbul

avatar Galfimbul


Школьница 3:
Школьница наносит ответный удар

Год производства: 2003 г.
Жанр: Feature
Продолжительность: 1:57:50
Режиссер: Нестор Петрович
Продюсер: Сергей Прянишников
Студия: SP Company
В ролях: Людмила Б., Елена Одинцова, Коля Ставрогин, Андрей Н.
Описание:
"Ну что, девчонки, отметим Первое сентября?" "А мы уже давно не девочки... Так что давайте трахаться!" После такого диалога, состоявшегося между старшеклассниками, становится понятно, как детишки проводят свое свободное время. Но ладно бы только одноклассники между собой перепихивались, так нет, они еще и учителей соблазняют. А директор сначала только онанизмом занимался...
О раздаче:
Рип сделан автором раздачи.
От остальных релизов отличается высоким качеством картинки.
Качество: DVDRip
Видео: AVI, XviD, 640x480, 1500 kbps, 25 fps, 0.195 Bits/(Pixel*Frame)
Аудио: MP3, LAME, 192 kbps CBR, 48 KHz, stereo
General
Format : AVI
Format/Info : Audio Video Interleave
Format profile : OpenDML
File size : 1.40 GiB
Duration : 1 h 57 min
Overall bit rate : 1 701 kb/s
Writing application : Lavf57.83.100

Video
Format : MPEG-4 Visual
Format profile : Advanced Simple@L5
Format settings : BVOP2
Format settings, BVOP : 2
Format settings, QPel : No
Format settings, GMC : No warppoints
Format settings, Matrix : Default (H.263)
Muxing mode : Packed bitstream
Codec ID : XVID
Codec ID/Hint : XviD
Duration : 1 h 57 min
Bit rate : 1 495 kb/s
Width : 640 pixels
Height : 480 pixels
Display aspect ratio : 4:3
Frame rate : 25.000 FPS
Color space : YUV
Chroma subsampling : 4:2:0
Bit depth : 8 bits
Scan type : Progressive
Compression mode : Lossy
Bits/(Pixel*Frame) : 0.195
Stream size : 1.23 GiB (88%)
Writing library : XviD 73

Audio
Format : MPEG Audio
Format version : Version 1
Format profile : Layer 3
Format settings : Joint stereo / MS Stereo
Mode : Joint stereo
Mode extension : MS Stereo
Codec ID : 55
Codec ID/Hint : MP3
Duration : 1 h 57 min
Bit rate mode : Constant
Bit rate : 192 kb/s
Channel(s) : 2 channels
Sampling rate : 48.0 kHz
Compression mode : Lossy
Stream size : 162 MiB (11%)
Alignment : Aligned on interleaves
Interleave, duration : 24 ms (0.60 video frame)
Interleave, preload duration : 24 ms
Writing library : LAME3.99.5


Внимание! AdBlock блокирует показ скриншотов, все вопросы к разработчикам )))
Трекер:  [ 20-Апр-2018 00:06 ]

  

Скачать .torrent

Размер .torrent файла 14 KB


Размер: 1.4 GB
Хэш (hash) релиза: 692cd8085ddccc7cf383d561c3cb09a0242bdee5

Торренты, похожие на Школьница 3. Школьница наносит ответный удар скачать торрент

Форум Название Автор Размер S L Добавлен
Русские порнофильмы / Russian Full Length Movies ·· Школьница 3: Школьница наносит ответный удар / Schoolgirl 3: Schoolgirl Strikes Back (Нестор Петрович, SP Comany) [2003 г., Feature DP Anal Sex Barely legal Double Penetration Lesbians Lolita, DVD-Remux] (Милена Лисицына, Татьяна Белоусова, директор Galfimbul 37091219303.45 GB 0 0 1580567768

17:36

1-Фев-20

Полнометражные порно фильмы (Rips) ·· Школьница - 3. Школьница наносит ответный удар (Нестор Петрович, SPComany) [2003 г., Feature, DVDRip] [Split Scenes] Galfimbul 15762247681.47 GB 0 0 1305518243

06:57

16-Май-11

Полнометражные порно фильмы (DVD, HD DVD и Blu-ray) ·· Школьница - 3. Школьница наносит ответный удар (Нестор Петрович, SPComany) [2003 г., Feature, DVD5] Galfimbul 41728405423.89 GB 0 0 1305518221

06:57

16-Май-11

Полнометражные порно фильмы (Rips) ·· Школьница - 3. Школьница наносит ответный удар (Нестор Петрович / SPComany) [2003 г., DVDRip] Galfimbul 722339840689 MB 0 0 1305518162

06:56

16-Май-11

Еще никто не оставлял запись к записи скачать торрент Школьница 3. Школьница наносит ответный удар . Будь первым!

!Обратная связь