Скачать через торрент Неделимое Фильм бесплатно в хорошем качестве torrent

Скачивайте на UnionPeer.org фильмы через торрент без регистрации. Новинки кино в хорошем качестве через торрент. На UnionPeer.org можно скачать через торрент фильмы 2014 и 2015 годов. Самые новые фильмы.

Скачать торрент Неделимое бесплатно через .torrent фильм мультфильм сериал

Статистика раздачи
Размер:  1.23 GB   |    Зарегистрирован:  3 года 1 месяц   |    .torrent скачан:  46 раз   |   
Раздают:  1  
 

Скачать Неделимое (Олжас Ахметов) [2017, Казахстан, криминал, драма, комедия, DVB] Original Rus через torrent

 
 
Автор Сообщение

Galfimbul

avatar Galfimbul


Неделимое
Страна: Казахстан
Жанр: криминал, драма, комедия
Продолжительность: 01:20:10
Год выпуска: 2017
Перевод: не требуется
Субтитры: отсутствуют
Режиссёр: Олжас Ахметов
В ролях: Азиз Бейшеналиев, Берик Айтжанов, Алексей Шемес, Нуржан Садыбеков, Чингиз Капин, Асан Мажит, Ерден Телемисов, Жибек Жаппасбаева, Ербол Семкулов, Алия Ахметова
О фильме: Совершив дерзкое ограбление машины инкассации, преступники останавливаются в придорожном заведении, где оказываются в совершенно неподходящей компании. На кону небывалый куш. И совсем скоро «гостей» раскроют. Стрелять, бежать или договариваться?..

Семпл: https://www.sendspace.com/file/2nzci8
Качество: DVB [КТК] (эфир 08.05.2018)
Формат: TS
Видео: AVC, 720x576 @ 1047x576 (16:9), 25 fps, ~1887 kbps, 0.182 bit/pixel
Аудио: [RUS] 48 kHz, MP2, 1 ch, 192 kbps
ОбщееИдентификатор : 1 (0x1)Полное имя : F:\Неделимое (2017) [КТК].tsФормат : MPEG-TSРазмер файла : 1,23 ГбайтПродолжительность : 1 ч. 20 м.Режим общего битрейта : ПеременныйОбщий поток : 2189 Кбит/сек

ВидеоИдентификатор : 67 (0x43)Идентификатор меню : 1 (0x1)Формат : AVCФормат/Информация : Advanced Video CodecПрофиль формата : High@L3Параметр CABAC формата : ДаПараметр RefFrames формата : 3 кадраИдентификатор кодека : 27Продолжительность : 1 ч. 20 м.Битрейт : 1887 Кбит/секШирина : 720 пикселейВысота : 576 пикселейСоотношение сторон : 16:9Частота кадров : 25,000 кадров/секСтандарт вещания : ComponentЦветовое пространство : YUVСубдискретизация насыщенности : 4:2:0Битовая глубина : 8 битТип развёртки : ЧересстрочнаяМетод сохранения типа развёртки : Раздельные поляПорядок развёртки : Верхнее поле первоеБит/(Пиксели*Кадры) : 0.182Размер потока : 1,06 Гбайт (86%)Цветовой диапазон : LimitedОсновные цвета : BT.601 PALХарактеристики трансфера : BT.470 System B, BT.470 System GКоэффициенты матрицы : BT.470 System B, BT.470 System G

АудиоИдентификатор : 68 (0x44)Идентификатор меню : 1 (0x1)Формат : MPEG AudioВерсия формата : Version 1Профиль формата : Layer 2Идентификатор кодека : 3Продолжительность : 1 ч. 20 м.Вид битрейта : ПостоянныйБитрейт : 192 Кбит/секКаналы : 1 каналЧастота : 48,0 КГцМетод сжатия : С потерямиЗадержка видео : -40 мс.Размер потока : 110 Мбайт (9%)Язык : English


Внимание! AdBlock блокирует показ скриншотов, все вопросы к разработчикам )))
Трекер:  [ 14-Май-2018 13:24 ]

  

Скачать .torrent

Размер .torrent файла 12 KB


Размер: 1.23 GB
Хэш (hash) релиза: 87d9197b31d45bc941255b5c31701061d3c0b451
Подписка на обновления:

Еще никто не оставлял запись к записи скачать торрент Неделимое . Будь первым!

!Обратная связь