Скачать порно через торрент Anally Yours...Love, Adrianna Nicole Анально ваша... С любовью, Адрианна Николь UnionPeer.org бесплатно онлайн HD качество

Скачать новое порно 2015, 2014 новинки через торрент UnionPeer.org

Порно торрент бесплатно ЮнионПир.орг

Статистика раздачи
Размер:  2.27 GB   |    Зарегистрирован:  2 года   |    .torrent скачан:  673 раза   |   
Раздают:  1   Качают:  1  
   
 
Автор Сообщение

Galfimbul ghost

avatar Galfimbul ghost


Anally Yours...Love, Adrianna Nicole / Анально ваша... С любовью, Адрианна Николь

Год производства: 2008 г.
Страна: USA
Жанр: Compilation, Anal, DP, DAP, A2M, Squirt, Facial
Продолжительность: 02:39:49
Язык: Английский
Студия: Hustler Video

В ролях: Adrianna Nicole, Angela Stone, Ariana Jollee (as Ariana Jolie), Hillary Scott, Jessica Jaymes, Taylor Rain, Trina Michaels, Marlena, Alec Knight, Chris Charming, Mark Wood, Sergio, Talon, Tony T, Marco Banderas, Claudio Meloni, Tommy Gunn

Описание: Bursting With Your Favorite Hotties Getting It Deep In The Ass!
I love watching my first double anal scene. It gets me so horny & wet for a big cock in my ass. I''m pretty sure you''re gonna like watching it too. Love, Adrianna

Scene Breakdowns:
Scene 1. Adrianna Nicole, 2 guys
Scene 2. Ariana Jollee, Tony T.
Scene 3. Hillary Scott, Alec Knight, Mark Wood
Scene 4. Angela Stone, Chris Charming
Scene 5. Trina Michaels, Sergio, Talon
Scene 6. Jessica Jaymes, Taylor Rain, guy

Качество видео: DVDRip
Формат видео: MKV
Видео: AVC, 1 840 kb/s, 640x480 (4:3), 29.970 FPS, Bits/(Pixel*Frame):0.200
Аудио: AC-3, 48.0 kHz, 2 channels Stereo, 192 kb/s CBR
General
Unique ID : 301116065074193696123527319345194755849 (0xE288D83ABC7CE26182FEE400EE926709)
Complete name : Anally.Yours.Love.Adrianna.Nicole.x264.mkv
Format : Matroska
Format version : Version 4
File size : 2.27 GiB
Duration : 2 h 39 min
Overall bit rate : 2 034 kb/s
Movie name : Anally Yours...Love, Adrianna Nicole
Encoded date : UTC 2019-05-12 16:24:21
Writing application : mkvmerge v33.1.0 (''Primrose'') 64-bit
Writing library : libebml v1.3.7 + libmatroska v1.5.0 / Lavf58.20.100

Video
ID : 1
Format : AVC
Format/Info : Advanced Video Codec
Format profile : High@L4.1
Format settings : CABAC / 4 Ref Frames
Format settings, CABAC : Yes
Format settings, ReFrames : 4 frames
Codec ID : V_MPEG4/ISO/AVC
Duration : 2 h 39 min
Bit rate : 1 840 kb/s
Width : 640 pixels
Height : 480 pixels
Display aspect ratio : 4:3
Frame rate mode : Constant
Frame rate : 29.970 (30000/1001) FPS
Color space : YUV
Chroma subsampling : 4:2:0
Bit depth : 8 bits
Scan type : Progressive
Bits/(Pixel*Frame) : 0.200
Stream size : 2.05 GiB (90%)
Writing library : x264 core 157 r2935 545de2f
Encoding settings : cabac=1 / ref=3 / deblock=1:-1:-1 / analyse=0x3:0x113 / me=hex / subme=7 / psy=1 / psy_rd=1.00:0.15 / mixed_ref=1 / me_range=16 / chroma_me=1 / trellis=1 / 8x8dct=1 / cqm=0 / deadzone=21,11 / fast_pskip=1 / chroma_qp_offset=-3 / threads=6 / lookahead_threads=1 / sliced_threads=0 / nr=0 / decimate=1 / interlaced=0 / bluray_compat=0 / constrained_intra=0 / bframes=3 / b_pyramid=2 / b_adapt=1 / b_bias=0 / direct=1 / weightb=1 / open_gop=0 / weightp=2 / keyint=300 / keyint_min=30 / scenecut=40 / intra_refresh=0 / rc_lookahead=40 / rc=2pass / mbtree=1 / bitrate=1840 / ratetol=1.0 / qcomp=0.60 / qpmin=0 / qpmax=69 / qpstep=4 / cplxblur=20.0 / qblur=0.5 / vbv_maxrate=62500 / vbv_bufsize=78125 / nal_hrd=none / filler=0 / ip_ratio=1.40 / aq=1:1.00
Default : Yes
Forced : No
Color range : Limited
Color primaries : BT.601 NTSC
Transfer characteristics : BT.709
Matrix coefficients : BT.601

Audio
ID : 2
Format : AC-3
Format/Info : Audio Coding 3
Commercial name : Dolby Digital
Codec ID : A_AC3
Duration : 2 h 39 min
Bit rate mode : Constant
Bit rate : 192 kb/s
Channel(s) : 2 channels
Channel layout : L R
Sampling rate : 48.0 kHz
Frame rate : 31.250 FPS (1536 SPF)
Bit depth : 16 bits
Compression mode : Lossy
Stream size : 219 MiB (9%)
Title : Stereo
Language : English
Service kind : Complete Main
Default : Yes
Forced : No

Menu
00:00:00.000 : :Chapter 1
00:40:20.618 : :Chapter 2
01:08:29.739 : :Chapter 3
01:44:11.045 : :Chapter 4
02:21:58.410 : :Chapter 5
<div class="post-align" style="text-align: center;">Другие раздачи этого фильма на трекере:
Anally Yours...Love, Adrianna Nicole / С любовью, анально ваша, Adrianna Nicole (Hustler) [2008, Big Titts, Anal, Hardcore, All Sex, DVD9] (6,43 GB)
Anally Yours Love Adrianna Nicole / С Любовью, Анально Ваша Adrianna Nicole (Hustler) [2008 г., Compilation, ATM, Anal, DP, DVDRip] (1,36 GB)</div>

Внимание! AdBlock блокирует показ скриншотов, все вопросы к разработчикам )))
Трекер:  [ 13-Май-2019 00:01 ]

  

Скачать .torrent

Размер .torrent файла 91 KB


Размер: 2.27 GB
Хэш (hash) релиза: b5dd4eb7332727fb5016c7aea0e67c0b61bc9ede

Еще никто не оставлял запись к записи скачать торрент Anally Yours...Love, Adrianna Nicole Анально ваша... С любовью, Адрианна Николь . Будь первым!

!Обратная связь