Fuel Injected 2 UnionPeer.org HD

2015, 2014 UnionPeer.org

.

7.72 GB   |    :  1 10    |    .torrent :  312    |   
1   3  
   
 

Galfimbul ghost

avatar Galfimbul ghost


Fuel Injected 2

: 2004
: Gonzo, Anal, Facial, Swallow, A2M, Creampie, Bald
: 02:10:46
:

: Stoney Curtis
: Celestial

Scene Breakdowns
Scene 1. Michelle B., Talon, Trent Soluri
Scene 2. Keri Sable, Andrew Andretti
Scene 3. Svetlana, Lee Stone
Scene 4. Mary Jane, Talon
Scene 5. Ana Nova, Andrew Andretti, Dirty Harry

:
: DVD9
: MPEG-2, 720x480, 29.970 (30000/1001) FPS, 6 191 kb/s
: AC-3, 48.0 kHz, 2 channels, 192 kb/s
General
Complete name : VTS_01_1.VOB
Format : MPEG-PS
File size : 1 024 MiB
Duration : 23 min 7 s
Overall bit rate mode : Constant
Overall bit rate : 6 191 kb/s

Video
ID : 224 (0xE0)
Format : MPEG Video
Format version : Version 2
Format profile : Main@Main
Format settings : BVOP
Format settings, BVOP : Yes
Format settings, Matrix : Default
Format settings, GOP : M=5, N=26
Format settings, picture structure : Field
Duration : 23 min 7 s
Bit rate mode : Constant
Bit rate : 5 900 kb/s
Width : 720 pixels
Height : 480 pixels
Display aspect ratio : 4:3
Frame rate : 29.970 (30000/1001) FPS
Standard : NTSC
Color space : YUV
Chroma subsampling : 4:2:0
Bit depth : 8 bits
Scan type : Interlaced
Scan order : Top Field First
Compression mode : Lossy
Bits/(Pixel*Frame) : 0.570
Time code of first frame : 00:11:35;00
Time code source : Group of pictures header
GOP, Open/Closed : Open
Stream size : 972 MiB (95%)
Color primaries : BT.601 NTSC
Transfer characteristics : BT.601
Matrix coefficients : BT.601

Audio
ID : 189 (0xBD)-128 (0x80)
Format : AC-3
Format/Info : Audio Coding 3
Muxing mode : DVD-Video
Duration : 23 min 7 s
Bit rate mode : Constant
Bit rate : 192 kb/s
Channel(s) : 2 channels
Channel positions : Front: L R
Sampling rate : 48.0 kHz
Frame rate : 31.250 FPS (1536 SPF)
Bit depth : 16 bits
Compression mode : Lossy
Stream size : 31.8 MiB (3%)
Service kind : Complete Main

Menu
<div class="post-align" style="text-align: center;"> (DHT\PeX )</div>

! AdBlock , )))
 ·  , , FAQ-
:  [ 20--2019 00:06 ]

  

.torrent

.torrent 22 KB


: 7.72 GB
(hash) : 2acc9cf4ebded00896cf85638ad8ef03bcc02e87
··
...

Fuel Injected 2 . !

!