Скачать порно через торрент Squirtwoman 2 Cytherea Iz Squirtwoman 2 UnionPeer.org бесплатно онлайн HD качество

Скачать новое порно 2015, 2014 новинки через торрент UnionPeer.org

Порно торрент бесплатно ЮнионПир.орг

Статистика раздачи
Размер:  7 GB   |    Зарегистрирован:  1 год 4 месяца   |    .torrent скачан:  352 раза   |   
Раздают:  1  
 

Скачать Squirtwoman 2 / Cytherea Iz Squirtwoman 2 (Patrick Collins / Elegant Angel) [2004, Gonzo, Female Ejaculation, Squirting, For Women, Anal, Squirt Swallow, DVD9] Cytherea, Leann, Nautica Thorn, Tianna Lynn, Pandora Dreams через torrent

 
 
Автор Сообщение

Galfimbul ghost

avatar Galfimbul ghost


<div class="post-align" style="text-align: center;">Squirtwoman 2</div>

Название фильма: Squirtwoman 2
Год релиза: 2004
Страна: USA
Жанр: Gonzo, Female Ejaculation, Squirting, For Women, Anal, Squirt Swallow
Язык: English
Продолжительность: 01:40:36

Режиссер: Patrick Collins
Студия / Дистрибьютер: Elegant Angel

Starring:
Cytherea, Leann, Nautica Thorn, Tianna Lynn, Pandora Dreams

Описание:
Cytherea is the real deal. The girl nectar she shoots is so tasty it should be bottled. Just ask all the people that swallow it in Squirtwoman 2. As she likes to say, "The drinks are on... me!" Along with over 50 squirts, there''s plenty of internal cum shots, anal, and lots of swallowing!

https://www.amazon.co.uk/Squirtwoman-2-Elegant-Angel/dp/B076KF21DJ

Качество: DVD9
Формат: DVD-Video
Видео: MPEG2 Video 720x480 (4:3) 29.97fps 5721kbps
Аудио: Dolby AC3 48000Hz stereo 192kbps

General
Format : MPEG-PS
File size : 4.24 GiB
Duration : 1 h 40 min
Overall bit rate mode : Variable
Overall bit rate : 6 033 kb/s

Video
ID : 224 (0xE0)
Format : MPEG Video
Format version : Version 2
Format profile : Main@Main
Format settings : CustomMatrix / BVOP
Format settings, BVOP : Yes
Format settings, Matrix : Custom
Format settings, GOP : M=3, N=15
Format settings, picture struc : Frame
Duration : 1 h 40 min
Bit rate mode : Variable
Bit rate : 5 721 kb/s
Maximum bit rate : 6 500 kb/s
Width : 720 pixels
Height : 480 pixels
Display aspect ratio : 4:3
Frame rate : 29.970 (30000/1001) FPS
Standard : NTSC
Color space : YUV
Chroma subsampling : 4:2:0
Bit depth : 8 bits
Scan type : Interlaced
Scan order : Top Field First
Compression mode : Lossy
Bits/(Pixel*Frame) : 0.552
Time code of first frame : 10:00:53;08
Time code source : Group of pictures header
GOP, Open/Closed : Closed
Stream size : 4.02 GiB (95%)

Audio
ID : 189 (0xBD)-128 (0x80)
Format : AC-3
Format/Info : Audio Coding 3
Commercial name : Dolby Digital
Muxing mode : DVD-Video
Duration : 1 h 40 min
Bit rate mode : Constant
Bit rate : 192 kb/s
Channel(s) : 2 channels
Channel layout : L R
Sampling rate : 48.0 kHz
Frame rate : 31.250 FPS (1536 SPF)
Compression mode : Lossy
Stream size : 138 MiB (3%)
Service kind : Complete Main


Внимание! AdBlock блокирует показ скриншотов, все вопросы к разработчикам )))
Трекер:  [ 26-Дек-2019 00:26 ]

  

Скачать .torrent

Размер .torrent файла 35 KB


Размер: 7 GB
Хэш (hash) релиза: 7cc7f2885cee94a4f7d9098e9cf43e6528f3203d

Еще никто не оставлял запись к записи скачать торрент Squirtwoman 2 Cytherea Iz Squirtwoman 2 . Будь первым!

!Обратная связь