Скачать порно через торрент Flower's Squirt Shower 2 Flower Tucci и ее оргазмы 2 UnionPeer.org бесплатно онлайн HD качество

Скачать новое порно 2015, 2014 новинки через торрент UnionPeer.org

Порно торрент бесплатно ЮнионПир.орг

Статистика раздачи
Размер:  7.35 GB   |    Зарегистрирован:  1 год 4 месяца   |    .torrent скачан:  412 раз   |   
Раздают:  1   Качают:  6  
 

Скачать Flower's Squirt Shower 2 / Flower Tucci и ее оргазмы 2 (William H. Nutsack / Elegant Angel) [2005, Gonzo, Squirting, Anal, Double Enders, Orgy, For Women, DVD9] Angela Stone, Flower Tucci, Kat, Sunny Lane, Tiana Lynn через torrent

 
 
Автор Сообщение

Galfimbul ghost

avatar Galfimbul ghost


<div class="post-align" style="text-align: center;">Flower''s Squirt Shower 2</div>

Название фильма: Flower''s Squirt Shower 2
Год релиза: 2005
Страна: USA
Жанр: Gonzo, Squirting, Anal, Double Enders, Orgy, For Women
Язык: English
Продолжительность: 01:49:40

Режиссер: William H. Nutsack as William H.
Студия / Дистрибьютер: Elegant Angel

Starring:
Angela Stone, Flower Tucci, Kat, Sunny Lane, Tiana Lynn

Описание:
Watching Flower get her ass wrecked, Tiana Lynn''s super blasts, Kat having her petite ass ravaged, and the look of Sunny''s face receiving her first female facial... Absolutely priceless! There is also Angela Stone''s infamous squirt that actually shorted out a $4,000 camera. This is not to be missed!

https://www.elegantangel.com/743661/flowers-squirt-shower-2-streaming-porn-videos.html
https://www.jeedoo.com/product/1524393-Flowers-Squirt-Shower-2/

Качество: DVD9
Формат: DVD-Video
Видео: MPEG2 Video 720x480 (4:3) 29.97fps 5315kbps
Аудио: Dolby AC3 48000Hz stereo 192kbps

General
Format : MPEG-PS
File size : 4.30 GiB
Duration : 1 h 49 min
Overall bit rate mode : Variable
Overall bit rate : 5 619 kb/s

Video
ID : 224 (0xE0)
Format : MPEG Video
Format version : Version 2
Format profile : Main@Main
Format settings : CustomMatrix / BVOP
Format settings, BVOP : Yes
Format settings, Matrix : Custom
Format settings, GOP : M=3, N=15
Format settings, picture struc : Frame
Duration : 1 h 49 min
Bit rate mode : Variable
Bit rate : 5 315 kb/s
Maximum bit rate : 6 500 kb/s
Width : 720 pixels
Height : 480 pixels
Display aspect ratio : 4:3
Frame rate : 29.970 (30000/1001) FPS
Standard : NTSC
Color space : YUV
Chroma subsampling : 4:2:0
Bit depth : 8 bits
Scan type : Interlaced
Scan order : Top Field First
Compression mode : Lossy
Bits/(Pixel*Frame) : 0.513
Time code of first frame : 10:00:27;15
Time code source : Group of pictures header
GOP, Open/Closed : Closed
Stream size : 4.07 GiB (95%)

Audio
ID : 189 (0xBD)-128 (0x80)
Format : AC-3
Format/Info : Audio Coding 3
Commercial name : Dolby Digital
Muxing mode : DVD-Video
Duration : 1 h 49 min
Bit rate mode : Constant
Bit rate : 192 kb/s
Channel(s) : 2 channels
Channel layout : L R
Sampling rate : 48.0 kHz
Frame rate : 31.250 FPS (1536 SPF)
Compression mode : Lossy
Stream size : 151 MiB (3%)
Service kind : Complete Main


Внимание! AdBlock блокирует показ скриншотов, все вопросы к разработчикам )))
Трекер:  [ 26-Дек-2019 21:26 ]

  

Скачать .torrent

Размер .torrent файла 37 KB


Размер: 7.35 GB
Хэш (hash) релиза: 12ed2e918bc67d49112325cfc09439150dcb322a

Еще никто не оставлял запись к записи скачать торрент Flower's Squirt Shower 2 Flower Tucci и ее оргазмы 2 . Будь первым!

!Обратная связь