Скачать через торрент Триггер Серии: 1-5 из 16 Фильм бесплатно в хорошем качестве torrent

Скачивайте на UnionPeer.org фильмы через торрент без регистрации. Новинки кино в хорошем качестве через торрент. На UnionPeer.org можно скачать через торрент фильмы 2014 и 2015 годов. Самые новые фильмы.

Скачать торрент Триггер Серии: 1-5 из 16 бесплатно через .torrent фильм мультфильм сериал

Статистика раздачи
Размер:  2.93 GB   |    Зарегистрирован:  4 года   |    .torrent скачан:  29 раз   |   
Раздают:  1  
 

Скачать Триггер / Серии: 1-5 из 16 (Дмитрий Тюрин) [2020, драма, WEBRip] через torrent

 
 
Автор Сообщение

Galfimbul

avatar Galfimbul


Триггер

Год выпуска: 2020
Производство: Кинокомпания «Среда» для Первого канала
Жанр: драма
Продолжительность: ~00:50:00 серия
Субтитры: нет

Режиссёр: Дмитрий Тюрин

В ролях: Максим Матвеев, Игорь Костолевский, Светлана Иванова, Виктория Маслова, Роман Маякин, Владислав Тирон, Ангелина Стречина, Марк Юсеф, Данила Дунаев, Ян Цапник, Даниил Воробьёв, Янина Малинчик, Олег Масленников-Войтов, Дарья Буткеева, Маруся Пестунова, Екатерина Соломатина, Хельга Филиппова, Екатерина Соколова-Жубер, Лиза Климова, Мария Ахметзянова, Антон Денисенко, Антонина Паперная, Сергей Гурьев, Максим Костромыкин, Екатерина Копанова, Олег Каменщиков

Описание: Психолог Артём Стрелецкий — сторонник «шоковой терапии» в лечении больных. Он считает, что единственный способ для человека решить свои проблемы — это понять себя и перестать себе врать. Если большинство психологов «нянчатся» с клиентами, по полгода выслушивают жалобы на жизнь, сочувствуют — и получают при этом немалые деньги за цикл сеансов, — то Артем постоянно провоцирует клиентов: оскорбляет их, смеется над ними, намеренно выталкивает из зоны психологического комфорта. Практика Артема процветает, пока однажды один из его пациентов не кончает жизнь самоубийством…

Реклама: Нет.

Кинопоиск

Sample

Качество: WEBRip - 25Kuzmich
Формат: AVI
Видео кодек: XviD
Аудио кодек: AC3
Видео: 720x400 (1.80:1), 25 fps, XviD ~1450 kbps avg, 0.201 bit/pixel
Аудио: 48.0 kHz, AC3 Dolby Digital, 2/0 (L,R) ch, ~ 192 kbps
Раздача ведётся путём добавления новых серий, при каждом добавлении создаётся новый торрент. Чтобы начать докачку новой серии, пользователям необходимо сделать следующее:

- Остановить скачивание.
- Удалить старый торрент у себя из клиента (старые серии удалять не надо).
- Скачать новый торрент и запустить его у себя в клиенте вместо старого, при этом указать клиенту путь в старую папку куда и должно происходить скачивание новых серий.

Ваш клиент при этом должен произвести хеширование (проверку) старой папки (если не производит сам - помогите ему сделать это), и будет докачивать только те серии которых у вас ещё нет. Старые серии при этом не удаляются, а продолжают раздаваться!
Если вы уже удалили старые серии, то предотвратить повторную закачку старых серий можно, отжав галочку в соответствующих местах при запуске нового торрента. По возможности, желательно не удалять старые серии как можно дольше, чтобы релизер не столько продолжал раздавать старые серии, а смог сконцентрироваться на новых.
General
Complete name : D:\Triger.2018.WEB-DLRip.25Kuzmich\Triger.e01.WEB-DLRip.25Kuzmich.avi
Format : AVI
Format/Info : Audio Video Interleave
File size : 600 MiB
Duration : 50 min 51 s
Overall bit rate : 1 651 kb/s
Writing application : VirtualDubMod 1.5.10.3 | www.virtualdub-fr.org || (build 2550/release)
Writing library : VirtualDubMod build 2550/release

Video
ID : 0
Format : MPEG-4 Visual
Format profile : Advanced Simple@L5
Format settings : BVOP1
Format settings, BVOP : 1
Format settings, QPel : No
Format settings, GMC : No warppoints
Format settings, Matrix : Default (MPEG)
Codec ID : XVID
Codec ID/Hint : XviD
Duration : 50 min 51 s
Bit rate : 1 449 kb/s
Width : 720 pixels
Height : 400 pixels
Display aspect ratio : 16:9
Frame rate : 25.000 FPS
Color space : YUV
Chroma subsampling : 4:2:0
Bit depth : 8 bits
Scan type : Progressive
Compression mode : Lossy
Bits/(Pixel*Frame) : 0.201
Stream size : 527 MiB (88%)
Writing library : XviD 73

Audio
ID : 1
Format : AC-3
Format/Info : Audio Coding 3
Codec ID : 2000
Duration : 50 min 51 s
Bit rate mode : Constant
Bit rate : 192 kb/s
Channel(s) : 2 channels
Channel positions : Front: L R
Sampling rate : 48.0 kHz
Frame rate : 31.250 FPS (1536 SPF)
Bit depth : 16 bits
Compression mode : Lossy
Stream size : 69.8 MiB (12%)
Alignment : Split accross interleaves
Interleave, duration : 40 ms (1.00 video frame)
Interleave, preload duratio : 500 ms
Service kind : Complete Main


Внимание! AdBlock блокирует показ скриншотов, все вопросы к разработчикам )))
Трекер:  [ 19-Фев-2020 00:42 ]

  

Скачать .torrent

Размер .torrent файла 15 KB


Размер: 2.93 GB
Хэш (hash) релиза: 1dfbb401e164db5a56fa62651b429dbddbad28df
Подписка на обновления:

Торренты, похожие на Триггер Серии: 1-5 из 16 скачать торрент

Форум Название Автор Размер S L Добавлен
Российские сериалы ·· Триггер / Серии: 1-5 из 16 (Дмитрий Тюрин) [2020, драма, WEBRip 720p] Galfimbul 51474504884.79 GB 0 0 1582064894

01:28

19-Фев-20

Российские сериалы ·· Триггер / Серии: 1-5 из 16 (Дмитрий Тюрин) [2020, драма, WEBRip 1080p] Galfimbul 100282521499.34 GB 0 0 1582064780

01:26

19-Фев-20

Еще никто не оставлял запись к записи скачать торрент Триггер Серии: 1-5 из 16 . Будь первым!

!Обратная связь