Скачать порно через торрент Hump Bang! Трахни грудастенькую! UnionPeer.org бесплатно онлайн HD качество

Скачать новое порно 2015, 2014 новинки через торрент UnionPeer.org

Порно торрент бесплатно ЮнионПир.орг

Статистика раздачи
Размер:  9.36 GB   |    Зарегистрирован:  1 год 3 месяца   |    .torrent скачан:  245 раз   |   
Раздают:  1  
 

Скачать Hump Bang! / Трахни грудастенькую! (ep. 1-2 of 2) (Pashmina, MS Pictures) [uncen] [2012, comedy, romance, oral, big breast, masturbation, group, creampie, Blu-Ray] [jap / rus / eng] [1080p] через torrent

 
 
Автор Сообщение

Galfimbul

avatar Galfimbul


Hump Bang!
ハンプバング!
Трахни грудастенькую!


Год выпуска: 2012
Жанр: comedy, romance, oral, big breast, masturbation, group, creampie
Серии: ep. 1-2 of 2
Продолжительность: 2*25mn
Цензура: Отсутствует

Озвучка: Японская оригинальная
Озвучка: Английская профессиональная (полное дублирование) встроенная
Субтитры: Русские [Svoychuvak] внешние SRT
Субтитры: Английские встроенные BGS

Режиссер: Pビッツ君
Автор оригинала: 椋蔵
Студия: Pashmina, MS Pictures

Описание: Kouji and Hiro are exploring their sexual lives, not with ease, but with gradual acceptance of each other''s tastes. Kouji acts as the dominant master and Hiro seems to be the willing slave. Will this setup work for these two?

anidb

Доп. информация: БД выложили LegitRips, большое им за это спасибо. Качество плохое.

Качество видео: Blu-Ray
Формат видео: BD Video
Видео: AVC, 1920-1080, 16-9, 29.97 fps, 20.1-21.5 mbps
Аудио 1: jap, PCM, Stereo, 48.0 KHz, 1536 Kbps
Аудио 2: eng, PCM, Stereo, 48.0 KHz, 1536 Kbps

General
ID : 0 (0x0)
Complete name : 00000.m2ts
Format : BDAV
Format/Info : Blu-ray Video
File size : 4.38 GiB
Duration : 25 min 59 s
Overall bit rate mode : Variable
Overall bit rate : 24.1 Mb/s
Maximum Overall bit rate : 48.0 Mb/s

Video
ID : 4113 (0x1011)
Menu ID : 1 (0x1)
Format : AVC
Format/Info : Advanced Video Codec
Format profile : High@L4.1
Format settings : CABAC / 4 Ref Frames
Format settings, CABAC : Yes
Format settings, RefFrames : 4 frames
Codec ID : 27
Duration : 25 min 59 s
Bit rate mode : Variable
Bit rate : 20.1 Mb/s
Maximum bit rate : 30.0 Mb/s
Width : 1 920 pixels
Height : 1 080 pixels
Display aspect ratio : 16:9
Frame rate : 29.970 (30000/1001) FPS
Color space : YUV
Chroma subsampling : 4:2:0
Bit depth : 8 bits
Scan type : Interlaced
Scan type, store method : Separated fields
Scan order : Top Field First
Bits/(Pixel*Frame) : 0.323
Stream size : 3.65 GiB (83%)
Color range : Limited
Color primaries : BT.709
Transfer characteristics : BT.709
Matrix coefficients : BT.709

Audio #1
ID : 4352 (0x1100)
Menu ID : 1 (0x1)
Format : PCM
Format settings : Big / Signed
Muxing mode : Blu-ray
Codec ID : 128
Duration : 25 min 59 s
Bit rate mode : Constant
Bit rate : 1 536 kb/s
Channel(s) : 2 channels
Channel layout : L R
Sampling rate : 48.0 kHz
Bit depth : 16 bits
Stream size : 286 MiB (6%)

Audio #2
ID : 4353 (0x1101)
Menu ID : 1 (0x1)
Format : PCM
Format settings : Big / Signed
Muxing mode : Blu-ray
Codec ID : 128
Duration : 25 min 59 s
Bit rate mode : Constant
Bit rate : 1 536 kb/s
Channel(s) : 2 channels
Channel layout : L R
Sampling rate : 48.0 kHz
Bit depth : 16 bits
Stream size : 286 MiB (6%)

Text #1
ID : 4608 (0x1200)
Menu ID : 1 (0x1)
Format : PGS
Codec ID : 144

Text #2
ID : 4609 (0x1201)
Menu ID : 1 (0x1)
Format : PGS
Codec ID : 144


Внимание! AdBlock блокирует показ скриншотов, все вопросы к разработчикам )))
Трекер:  [ 14-Мар-2020 15:33 ]

  

Скачать .torrent

Размер .torrent файла 49 KB


Размер: 9.36 GB
Хэш (hash) релиза: 29835850f227834fc510838de2dc59f95ac022d9

Торренты, похожие на Hump Bang! Трахни грудастенькую! скачать торрент

Форум Название Автор Размер S L Добавлен
Хентай: основной подраздел / Hentai: main subsection ·· Hump Bang! / Трахни грудастенькую! (ep. 1-2 of 2) (Pashmina, MS Pictures, Kitty Media) [uncen] [2012, comedy, romance, oral, big breast, masturbation, group, creampie, BDRip] [jap / rus / eng / spa / chi / kor] [1080p] Galfimbul 23409707462.18 GB 0 0 1585083826

00:03

25-Мар-20

Еще никто не оставлял запись к записи скачать торрент Hump Bang! Трахни грудастенькую! . Будь первым!

!Обратная связь