Скачать порно через торрент 48 basic techniques of sex UnionPeer.org бесплатно онлайн HD качество

Скачать новое порно 2015, 2014 новинки через торрент UnionPeer.org

Порно торрент бесплатно ЮнионПир.орг

Статистика раздачи
Размер:  346 MB   |    Зарегистрирован:  1 год 2 месяца   |    .torrent скачан:  242 раза   |   
Раздают:  1  
 

Скачать 48 basic techniques of sex (Gomasen (3D)) (ep. 1 of 1) [cen] [2008, romance, all sex, GameRip] [jap] через torrent

 
 
Автор Сообщение

Galfimbul

avatar Galfimbul


48 basic techniques of sex
抱いて!四十八手


Год выпуска: 2008
Жанр: romance, all sex
Серии: ep. 1 of 1
Продолжительность: 26mn
Цензура: Есть во всех файлах

Озвучка: Японская оригинальная
Субтитры: Японские встроенные неотключаемые (хардсаб)
Субтитры: Китайские [yosakura.sub] внешние ASS

Студия: ごません(3D) / Gomasen (3D)

Описание: Пособие для молодоженов 48 позиций - не скучайте. Совместная жизнь новобрачных… Она хранила свою девственность для будущего мужа и теперь ты наконец-то можешь заняться с ней любовью используя разнообразные позы. Героиня озвучена милым голосом! "Расплывчатая" мультипликация реализована с помощью трехмерных технологий! Коллекция высшего качества мультипликаций, включающих 48 сексуальных поз! Возможно эта информация о методах пригодиться и вам в реальной жизни?
220055

https://www.dlsite.com/maniax/work/=/product_id/RJ037266.html

Качество видео: GAMErip
Разрешение видео: 480p
Формат видео: MP4
Видео: 640-480, 4-3, 30 fps, AVC, 1633 kbps
Аудио: jpn, AAC, Stereo, 44.1 KHz, 180 kbps

General
Complete name : 48 basic techniques of sex [GAMErip][B6B4B2A2].mp4
Format : MPEG-4
Format profile : Base Media / Version 2
Codec ID : mp42 (M4V /mp42/isom)
File size : 346 MiB
Duration : 25 min 29 s
Overall bit rate : 1 897 kb/s
Encoded date : UTC 2012-12-07 17:09:42
Tagged date : UTC 2012-12-07 17:09:42

Video
ID : 1
Format : AVC
Format/Info : Advanced Video Codec
Format profile : High@L4
Format settings : CABAC / 4 Ref Frames
Format settings, CABAC : Yes
Format settings, RefFrames : 4 frames
Codec ID : avc1
Codec ID/Info : Advanced Video Coding
Duration : 25 min 29 s
Source duration : 25 min 29 s
Bit rate : 1 633 kb/s
Width : 640 pixels
Height : 480 pixels
Display aspect ratio : 4:3
Frame rate mode : Constant
Frame rate : 30.000 FPS
Standard : NTSC
Color space : YUV
Chroma subsampling : 4:2:0
Bit depth : 8 bits
Scan type : Progressive
Bits/(Pixel*Frame) : 0.177
Stream size : 298 MiB (86%)
Source stream size : 313 MiB (90%)
Language : English
Encoded date : UTC 2012-12-07 17:09:42
Tagged date : UTC 2012-12-07 17:09:42
Color range : Limited
Color primaries : BT.601 NTSC
Transfer characteristics : BT.601
Matrix coefficients : BT.601
mdhd_Duration : 1528748
Codec configuration box : avcC

Audio
ID : 2
Format : AAC LC
Format/Info : Advanced Audio Codec Low Complexity
Codec ID : mp4a-40-2
Duration : 25 min 29 s
Source duration : 25 min 29 s
Bit rate mode : Constant
Bit rate : 180 kb/s
Channel(s) : 2 channels
Channel layout : L R
Sampling rate : 44.1 kHz
Frame rate : 43.066 FPS (1024 SPF)
Compression mode : Lossy
Stream size : 32.8 MiB (9%)
Source stream size : 32.8 MiB (9%)
Language : English
Encoded date : UTC 2012-12-07 17:09:42
Tagged date : UTC 2012-12-07 17:09:42
mdhd_Duration : 1527947


Внимание! AdBlock блокирует показ скриншотов, все вопросы к разработчикам )))
Трекер:  [ 31-Мар-2020 01:13 ]

  

Скачать .torrent

Размер .torrent файла 14 KB


Размер: 346 MB
Хэш (hash) релиза: 6063f3d2108eada9cbb9f8aa33ace1a5c7745c38

Торренты, похожие на 48 basic techniques of sex скачать торрент

Форум Название Автор Размер S L Добавлен
Хентай и Манга, Мультфильмы и Комиксы, Рисунки / Hentai & Manga, Cartoons & Comics, Artwork ·· Daite! Shijuhatte / The 48 basic techniques of sex / Обнимаю ! 48 раз (Gomasen) [cen] [2008 г.,Oral, Big tits, Straight, GameRip] [jap] Galfimbul 363179988346 MB 2 0 1355317080

15:58

12-Дек-12

Еще никто не оставлял запись к записи скачать торрент 48 basic techniques of sex . Будь первым!

!Обратная связь