Скачать через торрент Сила девяти Богов 9 Satra Фильм бесплатно в хорошем качестве torrent

Скачивайте на UnionPeer.org фильмы через торрент без регистрации. Новинки кино в хорошем качестве через торрент. На UnionPeer.org можно скачать через торрент фильмы 2014 и 2015 годов. Самые новые фильмы.

Скачать торрент Сила девяти Богов 9 Satra бесплатно через .torrent фильм мультфильм сериал

Статистика раздачи
Размер:  1.46 GB   |    Зарегистрирован:  3 года 9 месяцев   |    .torrent скачан:  71 раз   |   

Пиры будут получены при скачивании

 

Скачать Сила девяти Богов / 9 Satra (2018) WEB-DLRip | D через torrent

 
 
Автор Сообщение

Galfimbul

avatar Galfimbul


Название: Сила девяти Богов
Оригинальное название: 9 Satra
Год выпуска: 2018
Жанр: Мультфильм, боевик, приключения, фэнтези
Режиссеры: Понгса Корнсри, Гун Пхансувон, Нат Йосватананонт
В ролях: Конокчат Манятон, Савитри Суттичанонд, Сиричай Чароенкиджтанкул, Рачипол Ямсаенг, Ворарит Фуангаромья, Нимит Луксамипонг, Дхамакара Джакраворавут, Контхорн Таечоларн, Сансерн Покесомбат, Суванди Джакраворавудх

Описание: Непроглядная Тьма покрыла некогда процветающее царство Рамптеп. Но есть пророчество, что под созвездием Льва родится человек, который освободит свой народ от ига демонов. На острове Нок-Энн подрастает мальчик, которому предстоит постичь тайну магической силы Камня силы Девяти Богов и овладеть древним боевым искусством муай-тай. Теперь в его руках судьба царства.



Страна: Таиланд
Студия: Exformat Films, Igloo Studio
Продолжительность: 01:41:44
Перевод: Профессиональный (дублированный) | IVI

Файл
Качество: WEB-DLRip
Формат: AVI
Видео: 720x304 (2.37:1), 25 fps, XviD build 73 ~1657 kbps avg, 0.30 bit/pixel
Аудио: 48 kHz, AC3 Dolby Digital, 3/2 (L,C,R,l,r) + LFE ch, ~384 kbps
Субтитры: Нет
Формат : AVI
Формат/Информация : Audio Video Interleave
Размер файла : 1,46 Гбайт
Продолжительность : 1 ч. 41 м.
Общий поток : 2 051 Кбит/сек
Название фильма : Сила девяти Богов_2018_WEB-DLRip
Программа кодирования : VirtualDubMod 1.5.10.3 | (build 2550/release)
Авторское право : порошков

Видео
Идентификатор : 0
Формат : MPEG-4 Visual
Профиль формата : Advanced Simple@L5
Настройки формата : BVOP1 / Custom Matrix
Параметр BVOP формата : 1
Параметр QPel формата : Нет
Параметр GMC формата : Без точки перехода
Параметр матрицы формата : Выборочная
Идентификатор кодека : XVID
Идентификатор кодека/Подсказка : XviD
Продолжительность : 1 ч. 41 м.
Битрейт : 1 657 Кбит/сек
Ширина : 720 пикселей
Высота : 304 пикселя
Соотношение сторон : 2,35:1
Частота кадров : 25,000 кадров/сек
Цветовое пространство : YUV
Субдискретизация насыщенности : 4:2:0
Битовая глубина : 8 бит
Тип развёртки : Прогрессивная
Метод сжатия : С потерями
Бит/(Пиксели*Кадры) : 0.303
Размер потока : 1,18 Гбайт (81%)
Библиотека кодирования : XviD 73

Аудио
Идентификатор : 1
Формат : AC-3
Формат/Информация : Audio Coding 3
Коммерческое название : Dolby Digital
Идентификатор кодека : 2000
Продолжительность : 1 ч. 41 м.
Вид битрейта : Постоянный
Битрейт : 384 Кбит/сек
Каналы : 6 каналов
Channel layout : L R C LFE Ls Rs
Частота : 48,0 КГц
Частота кадров : 31,250 кадров/сек (1536 SPF)
Метод сжатия : С потерями
Размер потока : 279 Мбайт (19%)
Выравнивание : Разделение по промежуткам
Продолжительность промежутка : 40 мс. (1,00 видеокадр)
Время предзагрузки промежутка : 500 мс.
Источник http://listRutor.org

Внимание! AdBlock блокирует показ скриншотов, все вопросы к разработчикам )))
Трекер:  [ 09-Май-2020 16:20 ]

  

Скачать .torrent

Размер .torrent файла 15 KB


Размер: 1.46 GB
Хэш (hash) релиза: 3b387d4bb31e044f23a42aba45f34ea201406204
Подписка на обновления:

Торренты, похожие на Сила девяти Богов 9 Satra скачать торрент

Форум Название Автор Размер S L Добавлен
Мультфильмы 2016-2020 (Новинки мультфильмов) ·%· Сила девяти богов / The Legend of Muay Thai: 9 Satra (2018) WEBRip 1080p | D Galfimbul 15705207361.46 GB 0 0 1551795073

17:11

5-Мар-19

Еще никто не оставлял запись к записи скачать торрент Сила девяти Богов 9 Satra . Будь первым!

!Обратная связь