Скачать через торрент Темная Лига Справедливости: Война Апокалипсиса Justice League Dark: Apokolips War Фильм бесплатно в хорошем качестве torrent

Скачивайте на UnionPeer.org фильмы через торрент без регистрации. Новинки кино в хорошем качестве через торрент. На UnionPeer.org можно скачать через торрент фильмы 2014 и 2015 годов. Самые новые фильмы.

Скачать торрент Темная Лига Справедливости: Война Апокалипсиса Justice League Dark: Apokolips War бесплатно через .torrent фильм мультфильм сериал

Статистика раздачи
Размер:  3.03 GB   |    Зарегистрирован:  3 года 9 месяцев   |    .torrent скачан:  111 раз   |   

Пиры будут получены при скачивании

 

Скачать Темная Лига Справедливости: Война Апокалипсиса / Justice League Dark: Apokolips War (2020) WEBRip 1080p | Flarrow Films через torrent

 
 
Автор Сообщение

Galfimbul

avatar Galfimbul


Темная Лига справедливости: Война Апоколипса /Justice League Dark: Apokolips War

Год выхода: 2020
Жанр: мультфильм, ужасы, фантастика, фэнтези, боевик
Режиссер: Мэтт Питерс, Christina Sotta
В ролях: Розарио Доусон, Ребекка Ромейн, Рэйн Уилсон, Таисса Фармига, Джерри О'Коннелл, Камилла Ладдингтон, Шемар Мур, Тони Тодд, Джейсон О'Мара, Джон Ди Маджио

О фильме:
Когда тиран Дарксайд вторгается на планету Земля, лишь отважная Лига Справедливости может спасти её от глобального уничтожения. Самые сильные герои собираются вместе, чтобы дать последний бой, но проигрывают. Потери ужасны, и теперь им придется жить под гнетом Дарксайда и залечивать раны потерь.



Страна: США
Продолжительность: 01:30:07
Перевод: Профессиональный (многоголосый, закадровый) | Flarrow Films

Роли озвучивали: Антон Алёхин, Дмитрий Савкин, Ахилл Намазов, Алексей Ядренников, Семён Евсиков, Лена Лунина, Денис Кузьмичёв, Максим Жидков, Ксюша Березовая, Анастасия Скачкова, Рина Чернышова, Рута Новикова и Андрей Лысeнко.

Файл
Формат: MKV
Кодек: MPEG-4 AVC
Качество: WEBRip 1080p
Видео: 1920х1080, ~ 4 490 kb/s, 23.976 FPS, 8 bits
Звук: AC-3, 320 kb/s, 2 channels, 48.0 kHz
Субтитры: отсутствуют

General
Unique ID : 221985608693643867130909823127507286004 (0xA700DF83858D0A2038912809C729B7F4)
Complete name : C:FlarrowJustice.League.Dark.Apokolips.War.2020.1080p.WEBRip.DD5.1.x264-CMJustice.League.Dark.Apokolips.War.2020.mkv
Format : Matroska
Format version : Version 4
File size : 3.03 GiB
Duration : 1 h 30 min
Overall bit rate : 4 811 kb/s
Encoded date : UTC 2020-05-13 15:31:39
Writing application : mkvmerge v32.0.0 ('Astral Progressions') 64-bit
Writing library : libebml v1.3.7 + libmatroska v1.5.0

Video
ID : 1
Format : AVC
Format/Info : Advanced Video Codec
Format profile : High@L4
Format settings : CABAC / 2 Ref Frames
Format settings, CABAC : Yes
Format settings, Reference : 2 frames
Codec ID : V_MPEG4/ISO/AVC
Duration : 1 h 30 min
Bit rate : 4 490 kb/s
Width : 1 920 pixels
Height : 1 080 pixels
Display aspect ratio : 16:9
Frame rate mode : Constant
Frame rate : 23.976 (24000/1001) FPS
Color space : YUV
Chroma subsampling : 4:2:0
Bit depth : 8 bits
Scan type : Progressive
Bits/(Pixel*Frame) : 0.090
Stream size : 2.83 GiB (93%)
Writing library : x264 core 155 r2901 7d0ff22
Default : Yes
Forced : No
Color range : Limited
Color primaries : BT.709
Transfer characteristics : BT.709
Matrix coefficients : BT.709

Audio
ID : 2
Format : AC-3
Format/Info : Audio Coding 3
Commercial name : Dolby Digital
Codec ID : A_AC3
Duration : 1 h 30 min
Bit rate mode : Constant
Bit rate : 320 kb/s
Channel(s) : 2 channels
Channel layout : L R
Sampling rate : 48.0 kHz
Frame rate : 31.250 FPS (1536 SPF)
Compression mode : Lossy
Stream size : 206 MiB (7%)
Service kind : Complete Main
Default : Yes
Forced : No


Примечание: Без интро Flarrow Films



Источник http://listRutor.org

Внимание! AdBlock блокирует показ скриншотов, все вопросы к разработчикам )))
Трекер:  [ 13-Май-2020 22:10 ]

  

Скачать .torrent

Размер .torrent файла 15 KB


Размер: 3.03 GB
Хэш (hash) релиза: 0406aa139e79df26cd7882b6cdc5bf2518af3cfd
Подписка на обновления:

Торренты, похожие на Темная Лига Справедливости: Война Апокалипсиса Justice League Dark: Apokolips War скачать торрент

Форум Название Автор Размер S L Добавлен
Мультфильмы 2016-2020 (Новинки мультфильмов) ·%· Темная Лига справедливости: Война апокалипсиса / Justice League Dark: Apokolips War (2020) WEBRip 720p от NewComers | P Galfimbul 21163350781.97 GB 0 0 1588964428

22:00

8-Май-20

Мультфильмы 2016-2020 (Новинки мультфильмов) ·%· Темная Лига справедливости: Война апокалипсиса / Justice League Dark: Apokolips War (2020) WEBRip 1080p от NewComers | P Galfimbul 35988236693.35 GB 0 0 1588963943

21:52

8-Май-20

Мультфильмы 2016-2020 (Новинки мультфильмов) ·%· Темная Лига справедливости: Война апокалипсиса / Justice League Dark: Apokolips War (2020) WEBRip от NewComers | P Galfimbul 17570888801.64 GB 0 0 1588892444

02:00

8-Май-20

Мультфильмы 2016-2020 (Новинки мультфильмов) ·%· Темная Лига справедливости: Война апокалипсиса / Justice League Dark: Apokolips War (2020) WEBRip 1080p от NewComers | P Galfimbul 36421933213.39 GB 0 0 1588891225

01:40

8-Май-20

Мультфильмы 2016-2020 (Новинки мультфильмов) ·%· Темная Лига справедливости: Война апокалипсиса / Justice League Dark: Apokolips War (2020) WEBRip 720p от NewComers | P Galfimbul 21597046182.01 GB 0 0 1588891211

01:40

8-Май-20

Еще никто не оставлял запись к записи скачать торрент Темная Лига Справедливости: Война Апокалипсиса Justice League Dark: Apokolips War . Будь первым!

!Обратная связь