Скачать через торрент Вперёд Onward Фильм бесплатно в хорошем качестве torrent

Скачивайте на UnionPeer.org фильмы через торрент без регистрации. Новинки кино в хорошем качестве через торрент. На UnionPeer.org можно скачать через торрент фильмы 2014 и 2015 годов. Самые новые фильмы.

Скачать торрент Вперёд Onward бесплатно через .torrent фильм мультфильм сериал

Статистика раздачи
Размер:  22.47 GB   |    Зарегистрирован:  3 года 9 месяцев   |    .torrent скачан:  33 раза   |   

Пиры будут получены при скачивании

 

Скачать Вперёд / Onward (2020) BDRemux 1080p от селезень | iTunes через torrent

 
 
Автор Сообщение

Galfimbul

avatar Galfimbul


Вперёд /Onward

Год выхода: 2020
Жанр: Мультфильм, фэнтези, комедия, приключения, семейный, полнометражный
Режиссер: Дэн Скэнлон
В ролях: Том Холланд (II), Крис Прэтт, Джулия Луис-Дрейфус, Джон Ратценбергер, Октавия Спенсер, Мэл Родригес, Лина Уэйте, Али Вонг, Грей ДеЛайл, Трейси Ульман



О фильме: Когда-то давно в сказочном мире царила магия, но после открытия электричества маги стали не нужны, и развитие пошло по техногенному пути. Теперь эльфы, тролли, гоблины, мантикоры, феи, кентавры и единороги летают на самолетах, пользуются автомобилями и мобильниками и ведут в целом прозаичную жизнь. Братья-эльфы Иэн и Барли Лайтфуты воспитывались одной мамой, потому что их отец умер, когда они были ещё совсем маленькими. На 16-летие Иэну достаётся посох отца, и магическое заклинание, которое должно вернуть того к жизни на один день, но волшебный кристалл исчезает, воскресив только нижнюю половину папы. Барли, большой любитель квестов, невероятно рад — прихватив полупапу, братья отправляются в приключение на поиски другого кристалла.

Страна: США
Студия: Walt Disney Pictures, Pixar Animation Studios
Продолжительность: 01:42:21
Перевод: Дублированный | iTunes

Качество: BDRemux 1080p
Видео: MPEG-4 AVC, 1920x1080, 23.3 Mbit/s, 23.976 fps
Аудио #01: 48 kHz, AC3, 5.1, 384 Kbps | iTunes | RUS |
Аудио #02: 48 kHz, TrueHD, 7.1, 7021 Kbps | Оригинал | ENG |
Аудио #03: 48 kHz, AC3, 5.1, 640 Kbps | Оригинал | ENG |
Субтитры: Русские (Full), английские

General
Unique ID : 222860172861052193105362805356433808907 (0xA7A94EDB36CEC98AE5326F61237C9E0B)
Complete name : E:Video111Onward.2020.BDREMUX.1080p.seleZen.mkv
Format : Matroska
Format version : Version 4
File size : 22.5 GiB
Duration : 1 h 42 min
Overall bit rate mode : Variable
Overall bit rate : 31.4 Mb/s
Movie name : Onward 2020 from селезень
Encoded date : UTC 2020-05-14 03:41:31
Writing application : mkvmerge v40.0.0 ('Old Town Road + Pony') 64-bit
Writing library : libebml v1.3.9 + libmatroska v1.5.2
Cover : Yes
Attachments : cover.jpg

Video
ID : 1
Format : AVC
Format/Info : Advanced Video Codec
Format profile : [email protected]
Format settings : CABAC / 4 Ref Frames
Format settings, CABAC : Yes
Format settings, Reference : 4 frames
Codec ID : V_MPEG4/ISO/AVC
Duration : 1 h 42 min
Bit rate mode : Variable
Bit rate : 23.3 Mb/s
Maximum bit rate : 32.0 Mb/s
Width : 1 920 pixels
Height : 1 080 pixels
Display aspect ratio : 16:9
Frame rate mode : Constant
Frame rate : 23.976 (24000/1001) FPS
Color space : YUV
Chroma subsampling : 4:2:0
Bit depth : 8 bits
Scan type : Progressive
Bits/(Pixel*Frame) : 0.469
Stream size : 16.7 GiB (74%)
Language : English
Default : Yes
Forced : No

Audio #1
ID : 2
Format : AC-3
Format/Info : Audio Coding 3
Commercial name : Dolby Digital
Codec ID : A_AC3
Duration : 1 h 42 min
Bit rate mode : Constant
Bit rate : 384 kb/s
Channel(s) : 6 channels
Channel layout : L R C LFE Ls Rs
Sampling rate : 48.0 kHz
Frame rate : 31.250 FPS (1536 SPF)
Compression mode : Lossy
Stream size : 281 MiB (1%)
Title : iTunes
Language : Russian
Service kind : Complete Main
Default : Yes
Forced : Yes

Audio #2
ID : 3
Format : MLP FBA 16-ch
Format/Info : Meridian Lossless Packing FBA with 16-channel presentation
Commercial name : Dolby TrueHD with Dolby Atmos
Codec ID : A_TRUEHD
Duration : 1 h 42 min
Bit rate mode : Variable
Bit rate : 7 021 kb/s
Maximum bit rate : 10.9 Mb/s
Channel(s) : 8 channels
Channel layout : L R C LFE Ls Rs Lb Rb
Sampling rate : 48.0 kHz
Frame rate : 1 200.000 FPS (40 SPF)
Compression mode : Lossless
Stream size : 5.02 GiB (22%)
Title : Original
Language : English
Default : No
Forced : No
Number of dynamic objects : 13
Bed channel count : 1 channel
Bed channel configuration : LFE

Audio #3
ID : 4
Format : AC-3
Format/Info : Audio Coding 3
Commercial name : Dolby Digital
Codec ID : A_AC3
Duration : 1 h 42 min
Bit rate mode : Constant
Bit rate : 640 kb/s
Channel(s) : 6 channels
Channel layout : L R C LFE Ls Rs
Sampling rate : 48.0 kHz
Frame rate : 31.250 FPS (1536 SPF)
Compression mode : Lossy
Stream size : 469 MiB (2%)
Language : English
Service kind : Complete Main
Default : No
Forced : No

Text #1
ID : 5
Format : UTF-8
Codec ID : S_TEXT/UTF8
Codec ID/Info : UTF-8 Plain Text
Duration : 1 h 31 min
Bit rate : 113 b/s
Count of elements : 1556
Stream size : 76.3 KiB (0%)
Title : Full
Language : Russian
Default : No
Forced : No

Text #2
ID : 6
Format : UTF-8
Codec ID : S_TEXT/UTF8
Codec ID/Info : UTF-8 Plain Text
Duration : 1 h 35 min
Bit rate : 75 b/s
Count of elements : 1904
Stream size : 53.0 KiB (0%)
Language : English
Default : No
Forced : No

Menu
00:00:00.686 : en:Studio Logo
00:00:49.686 : en:Long ago
00:03:04.686 : en:Title Sequence
00:03:09.686 : en:Ian's morning
00:05:03.686 : en:Officer Bronco comes to Ligjtfoots
00:07:03.686 : en:Ian meet Dad's friend
00:08:14.686 : en:Making a list
00:09:34.686 : en:Ian starts his day
00:12:44.686 : en:Ian misses his Dad
00:14:53.686 : en:A gift from Dad
00:19:17.686 : en:Ian is at his room
00:20:38.686 : en:Barley comes up with something
00:23:46.686 : en:Barley drives his car
00:25:34.686 : en:Learning magic
00:27:25.686 : en:The boys look for the Manticore
00:31:21.686 : en:The Manticore comes back
00:32:49.686 : en:Laurel worries about the boys
00:36:33.686 : en:Guinevere gets a trouble
00:39:34.686 : en:Ian tries magic again
00:42:48.686 : en:The Manticore talks to Laurel
00:44:00.686 : en:Ian drives Guinevere
00:47:48.686 : en:The spell wears off
00:51:43.686 : en:Barley argues with Ian
00:54:59.686 : en:Grecklin of the Pawn shop
00:56:07.686 : en:Bronco calls Laurel
00:57:24.686 : en:Raven's Point
01:03:06.686 : en:Bronco chases the boys
01:07:05.686 : en:The boys follow the birds
01:08:49.686 : en:Ian likes the spell
01:10:06.686 : en:Laurel encounters Pixie Dusters
01:11:12.686 : en:Barley talks about Dad
01:13:30.686 : en:The boys are in dangerous
01:15:58.686 : en:Back where they started
01:17:59.686 : en:Barley cannot give it up
01:20:26.686 : en:It's curse
01:22:44.686 : en:I am a mighty warrior
01:24:26.686 : en:Ian's decision
01:26:59.686 : en:What Ian see
01:30:07.686 : en:Ian back to his school
01:32:53.686 : en:End Credits

Источник http://listRutor.org

Внимание! AdBlock блокирует показ скриншотов, все вопросы к разработчикам )))
Трекер:  [ 14-Май-2020 06:50 ]

  

Скачать .torrent

Размер .torrent файла 225 KB


Размер: 22.47 GB
Хэш (hash) релиза: 06e5e83f48139d75680a774f117a8339c3f7362e
Подписка на обновления:

Торренты, похожие на Вперёд Onward скачать торрент

Форум Название Автор Размер S L Добавлен
Мультфильмы 2016-2020 (Новинки мультфильмов) ·· Вперёд / Onward (2020) HDRip от Scarabey | iTunes Galfimbul 15062056961.4 GB 0 0 1589827861

21:51

18-Май-20

Мультфильмы 2016-2020 (Новинки мультфильмов) ·%· Вперёд / Onward (2020) HDRip от Portablius | iTunes Galfimbul 777945088742 MB 0 0 1589536950

13:02

15-Май-20

Мультфильмы 2016-2020 (Новинки мультфильмов) ·%· Вперёд / Onward (2020) BDRip-AVC | iTunes Galfimbul 15168104871.41 GB 0 0 1589452278

13:31

14-Май-20

Мультфильмы 2016-2020 (Новинки мультфильмов) ·%· Вперёд / Onward (2020) BDRip от Twister & ExKinoRay | iTunes Galfimbul 15198058881.42 GB 0 0 1589451220

13:13

14-Май-20

Мультфильмы 2016-2020 (Новинки мультфильмов) ·%· Вперёд / Onward (2020) HDRip от MegaPeer | iTunes Galfimbul 15692469601.46 GB 0 0 1589447814

12:16

14-Май-20

Мультфильмы 2016-2020 (Новинки мультфильмов) ·%· Вперёд / Onward (2020) BDRip-AVC | iTunes Galfimbul 22897345212.13 GB 0 0 1589447739

12:15

14-Май-20

Мультфильмы 2016-2020 (Новинки мультфильмов) ·%· Вперёд / Onward (2020) UHD BDRemux 2160p от селезень | 4K | HDR | iTunes Galfimbul 3713596410534.59 GB 0 0 1589429649

07:14

14-Май-20

Мультфильмы 2016-2020 (Новинки мультфильмов) ·%· Вперёд / Onward (2020) BDRip 720p от селезень | iTunes Galfimbul 38542099053.59 GB 0 0 1589259043

07:50

12-Май-20

Мультфильмы 2016-2020 (Новинки мультфильмов) ·%· Вперёд / Onward (2020) BDRip 1080p от селезень | iTunes Galfimbul 83783782007.8 GB 0 0 1589257813

07:30

12-Май-20

Мультфильмы 2016-2020 (Новинки мультфильмов) ·%· Вперёд / Onward (2020) WEB-DLRip от Portablius | Локализованная версия | iTunes Galfimbul 780843008745 MB 0 0 1587656006

18:33

23-Апр-20

Мультфильмы 2016-2020 (Новинки мультфильмов) ·%· Вперёд / Onward (2020) WEB-DLRip-AVC от ExKinoRay | Локализованная версия | iTunes Galfimbul 782654774746 MB 0 0 1587204778

13:12

18-Апр-20

Мультфильмы 2016-2020 (Новинки мультфильмов) ·%· Вперёд / Onward (2020) WEB-DLRip-AVC | Локализованная версия | iTunes Galfimbul 15647729891.46 GB 0 0 1587086462

04:21

17-Апр-20

Мультфильмы 2016-2020 (Новинки мультфильмов) ·%· Вперёд / Onward (2020) WEB-DL 1080p от селезень | Локализованная версия | iTunes Galfimbul 41067219153.82 GB 0 0 1587070816

00:00

17-Апр-20

Мультфильмы 2016-2020 (Новинки мультфильмов) ·%· Вперёд / Onward (2020) WEB-DL 720p от селезень | Локализованная версия | iTunes Galfimbul 37138123933.46 GB 0 0 1587067212

23:00

16-Апр-20

Мультфильмы 2016-2020 (Новинки мультфильмов) ·%· Вперёд / Onward (2020) WEB-DLRip от MegaPeer | iTunes Galfimbul 15694172161.46 GB 0 0 1587064935

22:22

16-Апр-20

Мультфильмы 2016-2020 (Новинки мультфильмов) ·%· Вперёд / Onward (2020) UHD WEB-DL 2160p от селезень | 4K | HDR | iTunes Galfimbul 1339658326712.48 GB 0 0 1587064903

22:21

16-Апр-20

Мультфильмы 2016-2020 (Новинки мультфильмов) ·%· Вперёд / Onward (2020) WEB-DL 1080p от селезень | iTunes Galfimbul 70350554156.55 GB 0 0 1587063082

21:51

16-Апр-20

Мультфильмы 2016-2020 (Новинки мультфильмов) ·%· Вперёд / Onward (2020) WEB-DLRip-AVC от ExKinoRay | D, HDRezka Studio Galfimbul 23121336052.15 GB 0 0 1585879839

05:10

3-Апр-20

Мультфильмы 2016-2020 (Новинки мультфильмов) ·%· Вперёд / Onward (2020) WEB-DLRip | D Galfimbul 15725260801.46 GB 0 0 1585595455

22:10

30-Мар-20

Еще никто не оставлял запись к записи скачать торрент Вперёд Onward . Будь первым!

!Обратная связь