Скачать порно через торрент Hentai heaven collection 05:Jewelry,In`youchuu Shoku:Ryoushokutou Taimaroku-Harami Ochiru Shoujo-tachHarem of the Hell Spawn,Succuba Mist Story UnionPeer.org бесплатно онлайн HD качество

Скачать новое порно 2015, 2014 новинки через торрент UnionPeer.org

Порно торрент бесплатно ЮнионПир.орг

Статистика раздачи
Размер:  13.61 GB   |    Зарегистрирован:  1 год 1 месяц   |    .torrent скачан:  313 раз   |   

Пиры будут получены при скачивании

   
 
Автор Сообщение

Galfimbul

avatar Galfimbul


Jewelry The Animation
Драгоценности


Год выпуска: 2018
Жанр: romance, straight, oral
Серии: ep. 1 of 1
Продолжительность: 17mn
Цензура: Отсутствует

Озвучка: Японская оригинальная
Озвучка: Английская профессиональная (полное дублирование)
Субтитры: Английские встроенные BGS

Режиссёр: Oota Hideta
Автор оригинала: Shibasaki Shouji
Студия: Studio 1st, Bootleg, MS Pictures

Описание: Романтическая история молодой пары в новогоднюю ночь.

anidb

Качество видео: Blu-Ray
Формат видео: BD Video
Видео: AVC, 1920-1080, 16-9, 23.976 fps, 13 mbps
Аудио 1: jap, PCM, Stereo, 48.0 KHz, 1536 Kbps
Аудио 2: eng, PCM, Stereo, 48.0 KHz, 1536 Kbps

General
ID : 0 (0x0)
Complete name : 00005.m2ts
Format : BDAV
Format/Info : Blu-ray Video
File size : 1.77 GiB
Duration : 16 min 39 s
Overall bit rate mode : Variable
Overall bit rate : 15.2 Mb/s
Maximum Overall bit rate : 48.0 Mb/s

Video
ID : 4113 (0x1011)
Menu ID : 1 (0x1)
Format : AVC
Format/Info : Advanced Video Codec
Format profile : High@L4.1
Format settings : CABAC / 4 Ref Frames
Format settings, CABAC : Yes
Format settings, RefFrames : 4 frames
Codec ID : 27
Duration : 16 min 39 s
Bit rate mode : Variable
Bit rate : 13.0 Mb/s
Maximum bit rate : 30.0 Mb/s
Width : 1 920 pixels
Height : 1 080 pixels
Display aspect ratio : 16:9
Frame rate : 23.976 (24000/1001) FPS
Color space : YUV
Chroma subsampling : 4:2:0
Bit depth : 8 bits
Scan type : Progressive
Bits/(Pixel*Frame) : 0.262
Stream size : 1.52 GiB (86%)
Color range : Limited
Color primaries : BT.709
Transfer characteristics : BT.709
Matrix coefficients : BT.709

Audio
ID : 4352 (0x1100)
Menu ID : 1 (0x1)
Format : PCM
Format settings : Big / Signed
Muxing mode : Blu-ray
Codec ID : 128
Duration : 16 min 39 s
Bit rate mode : Constant
Bit rate : 1 536 kb/s
Channel(s) : 2 channels
Channel layout : L R
Sampling rate : 48.0 kHz
Bit depth : 16 bits
Stream size : 183 MiB (10%)

Text
ID : 4608 (0x1200)
Menu ID : 1 (0x1)
Format : PGS
Codec ID : 144

In`youchuu Shoku: Ryoushokutou Taimaroku - Harami Ochiru Shoujo-tachi Anime Edition
淫妖蟲 蝕 ~凌触島退魔録~ 孕ミ堕チル少女達 Anime Edition
Harem of the Hell Spawn
Развратные тентакли


Год выпуска: 2017
Жанр: tentacle, monster, futanari, rape, anal, pregnant
Серии: ep. 1 of 1
Продолжительность: 15mn
Цензура: Отсутствует

Озвучка: Японская оригинальная
Озвучка: Английская профессиональная (полное дублирование)
Субтитры: Английские встроенные BGS

Режиссёр: Itou Fumio
Автор оригинала: chaccu
Студия: Studio 9 Maiami, AniMan, MS Pictures

Описание: чушь и снова чушь

Ещё одна печальная история агентства по уничтожению монстров «Чёрная Кошка»... Три молодых экзорцистки, которых попросили исследовать и разгадать тайну скрытого острова, попали на нём в ловушку и теперь вынуждены стать объектами похоти и извращённых экспериментов по разведению демонов. Все ваши самые извращённые фантазии померкнут перед тем, что им придётся пережить...

anidb

Качество видео: Blu-Ray
Формат видео: BD Video
Видео: AVC, 1920-1080, 16-9, 23.976 fps, 14.4 mbps
Аудио 1: jap, PCM, Stereo, 48.0 KHz, 1536 Kbps
Аудио 2: eng, PCM, Stereo, 48.0 KHz, 1536 Kbps

General
ID : 0 (0x0)
Complete name : 00006.m2ts
Format : BDAV
Format/Info : Blu-ray Video
File size : 1.74 GiB
Duration : 14 min 56 s
Overall bit rate mode : Variable
Overall bit rate : 16.6 Mb/s
Maximum Overall bit rate : 48.0 Mb/s

Video
ID : 4113 (0x1011)
Menu ID : 1 (0x1)
Format : AVC
Format/Info : Advanced Video Codec
Format profile : High@L4.1
Format settings : CABAC / 4 Ref Frames
Format settings, CABAC : Yes
Format settings, RefFrames : 4 frames
Format settings, GOP : M=3, N=23
Codec ID : 27
Duration : 14 min 56 s
Bit rate mode : Variable
Bit rate : 14.4 Mb/s
Maximum bit rate : 30.0 Mb/s
Width : 1 920 pixels
Height : 1 080 pixels
Display aspect ratio : 16:9
Frame rate : 23.976 (24000/1001) FPS
Color space : YUV
Chroma subsampling : 4:2:0
Bit depth : 8 bits
Scan type : Progressive
Bits/(Pixel*Frame) : 0.290
Stream size : 1.51 GiB (87%)
Color range : Limited
Color primaries : BT.709
Transfer characteristics : BT.709
Matrix coefficients : BT.709

Audio
ID : 4352 (0x1100)
Menu ID : 1 (0x1)
Format : PCM
Format settings : Big / Signed
Muxing mode : Blu-ray
Codec ID : 128
Duration : 14 min 56 s
Bit rate mode : Constant
Bit rate : 1 536 kb/s
Channel(s) : 2 channels
Channel layout : L R
Sampling rate : 48.0 kHz
Bit depth : 16 bits
Stream size : 164 MiB (9%)

Text
ID : 4608 (0x1200)
Menu ID : 1 (0x1)
Format : PGS
Codec ID : 144

Succuba Mist Story The Animation
さきゅばみすと・すとーりー The Animation
Demoness of Dreams


Год выпуска: 2017
Жанр: succubus, oral, anal, futanari, group, creampie
Серии: ep. 1 of 1
Продолжительность: 17mn
Цензура: Отсутствует

Озвучка: Японская оригинальная
Озвучка: Английская профессиональная (полное дублирование)
Субтитры: Английские встроенные BGS

Режиссёр: Hayakawa Naomi
Автор оригинала: Kimura Neito
Студия: Office Takeout, Bootleg, MS Pictures

Описание: "I''m a super cute girl who''s going to suck out all your semen <3" Lidy always takes the initiative when it comes to sex. Every evening and every night, she "comes over to my place" and has her way with me! it''s not that I hate her. If anything..., so... I want to... with her... "If you want me to grant your wish, just give me some of your semen" his beautiful professor offers. What a thing to say! The distance closes between "those two". Just who are "those two"!?!?

Source: Hanime

anidb

Качество видео: Blu-Ray
Формат видео: BD Video
Видео: AVC, 1920-1080, 16-9, 23.976 fps, 23.5 mbps
Аудио 1: jap, PCM, Stereo, 48.0 KHz, 1536 Kbps
Аудио 2: eng, PCM, Stereo, 48.0 KHz, 1536 Kbps

General
ID : 0 (0x0)
Complete name : 00007.m2ts
Format : BDAV
Format/Info : Blu-ray Video
File size : 2.98 GiB
Duration : 16 min 19 s
Overall bit rate mode : Variable
Overall bit rate : 26.1 Mb/s
Maximum Overall bit rate : 48.0 Mb/s

Video
ID : 4113 (0x1011)
Menu ID : 1 (0x1)
Format : AVC
Format/Info : Advanced Video Codec
Format profile : High@L4.1
Format settings : CABAC / 4 Ref Frames
Format settings, CABAC : Yes
Format settings, RefFrames : 4 frames
Codec ID : 27
Duration : 16 min 19 s
Bit rate mode : Variable
Bit rate : 23.5 Mb/s
Maximum bit rate : 30.0 Mb/s
Width : 1 920 pixels
Height : 1 080 pixels
Display aspect ratio : 16:9
Frame rate : 23.976 (24000/1001) FPS
Color space : YUV
Chroma subsampling : 4:2:0
Bit depth : 8 bits
Scan type : Progressive
Bits/(Pixel*Frame) : 0.473
Stream size : 2.68 GiB (90%)
Color range : Limited
Color primaries : BT.709
Transfer characteristics : BT.709
Matrix coefficients : BT.709

Audio
ID : 4352 (0x1100)
Menu ID : 1 (0x1)
Format : PCM
Format settings : Big / Signed
Muxing mode : Blu-ray
Codec ID : 128
Duration : 16 min 19 s
Bit rate mode : Constant
Bit rate : 1 536 kb/s
Channel(s) : 2 channels
Channel layout : L R
Sampling rate : 48.0 kHz
Bit depth : 16 bits
Stream size : 179 MiB (6%)

Text
ID : 4608 (0x1200)
Menu ID : 1 (0x1)
Format : PGS
Codec ID : 144

Mayoiga no Onee-san The Animation
マヨヒガのお姉さん THE ANIMATION
Lusty Ladies of Mayohiga
Сестрёнки из "Маёйги"


Год выпуска: 2017
Жанр: waitress, big breast, handjob, oral, paizuri, group, creampie
Серии: ep. 1 of 1
Продолжительность: 17mn

Озвучка: Японская оригинальная
Озвучка: Английская профессиональная (полное дублирование)
Субтитры: Английские встроенные BGS

Режиссёр: Raika Ken
Автор оригинала: Mikemono Yuu
Студия: T-Rex, Bootleg

Описание: "Маёйга" – это такой мистический дом, вознаграждающий заблудившихся путников. В нашем же случае, это кафе, где работает сестрёнка ГГ, куда он и приходит, чтобы расслабиться после успешно сданных экзаменов.

anidb

Качество видео: Blu-Ray
Формат видео: BD Video
Видео: AVC, 1920-1080, 16-9, 23.976 fps, 23.7 mbps
Аудио 1: jap, PCM, Stereo, 48.0 KHz, 1536 Kbps
Аудио 2: eng, PCM, Stereo, 48.0 KHz, 1536 Kbps

General
ID : 0 (0x0)
Complete name : 00008.m2ts
Format : BDAV
Format/Info : Blu-ray Video
File size : 3.15 GiB
Duration : 17 min 8 s
Overall bit rate mode : Variable
Overall bit rate : 26.3 Mb/s
Maximum Overall bit rate : 48.0 Mb/s

Video
ID : 4113 (0x1011)
Menu ID : 1 (0x1)
Format : AVC
Format/Info : Advanced Video Codec
Format profile : High@L4.1
Format settings : CABAC / 4 Ref Frames
Format settings, CABAC : Yes
Format settings, RefFrames : 4 frames
Codec ID : 27
Duration : 17 min 8 s
Bit rate mode : Variable
Bit rate : 23.7 Mb/s
Maximum bit rate : 30.0 Mb/s
Width : 1 920 pixels
Height : 1 080 pixels
Display aspect ratio : 16:9
Frame rate : 23.976 (24000/1001) FPS
Color space : YUV
Chroma subsampling : 4:2:0
Bit depth : 8 bits
Scan type : Progressive
Bits/(Pixel*Frame) : 0.476
Stream size : 2.84 GiB (90%)
Color range : Limited
Color primaries : BT.709
Transfer characteristics : BT.709
Matrix coefficients : BT.709

Audio
ID : 4352 (0x1100)
Menu ID : 1 (0x1)
Format : PCM
Format settings : Big / Signed
Muxing mode : Blu-ray
Codec ID : 128
Duration : 17 min 8 s
Bit rate mode : Constant
Bit rate : 1 536 kb/s
Channel(s) : 2 channels
Channel layout : L R
Sampling rate : 48.0 kHz
Bit depth : 16 bits
Stream size : 188 MiB (6%)

Text
ID : 4608 (0x1200)
Menu ID : 1 (0x1)
Format : PGS
Codec ID : 144

Juvenile Pornography The Animation
ジュヴナイルポルノグラフィ THE ANIMATION
Milf Park
Юношеская порнография


Год выпуска: 2017
Жанр: big breast, oral, ahegao, creampie
Серии: ep. 1 of 1
Продолжительность: 17mn
Цензура: Отсутствует

Озвучка: Японская оригинальная
Озвучка: Английская профессиональная (полное дублирование)
Субтитры: Английские встроенные BGS

Режиссёр: 朧矇褫楓龍
Автор оригинала: Mizuryuu Kei
Студия: Kosaka Shii, Office Takeout, Bootleg

Описание: As the sun filters through the trees, a beautiful woman is absorbed in her book. She reads the tale of a girl who is honest about her desires, a girl who writhes in boundless pleasure. "Hey, let''s have sex." Who''s speaking? Is it the girl in the story or the woman who''s reading it? The truth is that something even more erotic than the book''s story awaits!

Source: Hanime

anidb

Качество видео: Blu-Ray
Формат видео: BD Video
Видео: AVC, 1920-1080, 16-9, 23.976 fps, 23.9 mbps
Аудио 1: jap, PCM, Stereo, 48.0 KHz, 1536 Kbps
Аудио 2: eng, PCM, Stereo, 48.0 KHz, 1536 Kbps

General
ID : 0 (0x0)
Complete name : 00009.m2ts
Format : BDAV
Format/Info : Blu-ray Video
File size : 3.19 GiB
Duration : 17 min 13 s
Overall bit rate mode : Variable
Overall bit rate : 26.5 Mb/s
Maximum Overall bit rate : 48.0 Mb/s

Video
ID : 4113 (0x1011)
Menu ID : 1 (0x1)
Format : AVC
Format/Info : Advanced Video Codec
Format profile : High@L4.1
Format settings : CABAC / 4 Ref Frames
Format settings, CABAC : Yes
Format settings, RefFrames : 4 frames
Codec ID : 27
Duration : 17 min 13 s
Bit rate mode : Variable
Bit rate : 23.9 Mb/s
Maximum bit rate : 30.0 Mb/s
Width : 1 920 pixels
Height : 1 080 pixels
Display aspect ratio : 16:9
Frame rate : 23.976 (24000/1001) FPS
Color space : YUV
Chroma subsampling : 4:2:0
Bit depth : 8 bits
Scan type : Progressive
Bits/(Pixel*Frame) : 0.480
Stream size : 2.87 GiB (90%)
Color range : Limited
Color primaries : BT.709
Transfer characteristics : BT.709
Matrix coefficients : BT.709

Audio
ID : 4352 (0x1100)
Menu ID : 1 (0x1)
Format : PCM
Format settings : Big / Signed
Muxing mode : Blu-ray
Codec ID : 128
Duration : 17 min 13 s
Bit rate mode : Constant
Bit rate : 1 536 kb/s
Channel(s) : 2 channels
Channel layout : L R
Sampling rate : 48.0 kHz
Bit depth : 16 bits
Stream size : 189 MiB (6%)

Text
ID : 4608 (0x1200)
Menu ID : 1 (0x1)
Format : PGS
Codec ID : 144


Внимание! AdBlock блокирует показ скриншотов, все вопросы к разработчикам )))
Трекер:  [ 16-Май-2020 00:03 ]

  

Скачать .torrent

Размер .torrent файла 73 KB


Размер: 13.61 GB
Хэш (hash) релиза: d1b2cb69139b1f342ef11b609ab4259f0abb9d9f

Еще никто не оставлял запись к записи скачать торрент Hentai heaven collection 05:Jewelry,In`youchuu Shoku:Ryoushokutou Taimaroku-Harami Ochiru Shoujo-tachHarem of the Hell Spawn,Succuba Mist Story . Будь первым!

!Обратная связь