Скачать порно через торрент Hentai heaven collection 03: Tokubetsu Byoutou Double Duty Nurses UnionPeer.org бесплатно онлайн HD качество

Скачать новое порно 2015, 2014 новинки через торрент UnionPeer.org

Порно торрент бесплатно ЮнионПир.орг

Статистика раздачи
Размер:  19.23 GB   |    Зарегистрирован:  1 год 1 месяц   |    .torrent скачан:  291 раз   |   

Пиры будут получены при скачивании

   
 
Автор Сообщение

Galfimbul

avatar Galfimbul


Tokubetsu Byoutou
特別病棟
Double Duty Nurses
Restricted Hospital Ward
Специальные палаты


Год выпуска: 2007-2008
Жанр: hermaphrodite, yuri, rape, incest, lactation, anal, scut, creampie, pregnant
Серии: ep. 1-2 of 2
Продолжительность: 2*30 mn
Цензура: Отсутствует

Озвучка: Японская оригинальная
Озвучка: Английская профессиональная (полное дублирование)
Субтитры: Английские встроенные BGS

Режиссер: Shimizu Shin`ichi, 能登守やをき
Автор оригинала: Bishop
Студия: Studio Eromatick, Bootleg

Описание: В этой больнице мы не увидим мужчин, да и зачем они? Здесь есть главная медсестра со всеми нужными вещами, чтобы их заменить. А ещё есть таблетки, от которых у остальных медсестёр вырастают соски и клиторы. Вот так и живут...

anidb

Качество видео: Blu-Ray
Формат видео: BD Video
Видео: AVC, 1920-1080, 16-9 (4-3 с чёрными полосами), 29.97 fps, 14.5 mbps
Аудио 1: jap, PCM, Stereo, 48.0 KHz, 1536 Kbps
Аудио 2: eng, PCM, Stereo, 48.0 KHz, 1536 Kbps

General
ID : 0 (0x0)
Complete name : 00000.m2ts
Format : BDAV
Format/Info : Blu-ray Video
File size : 3.89 GiB
Duration : 30 min 1 s
Overall bit rate mode : Variable
Overall bit rate : 18.6 Mb/s
Maximum Overall bit rate : 48.0 Mb/s

Video
ID : 4113 (0x1011)
Menu ID : 1 (0x1)
Format : AVC
Format/Info : Advanced Video Codec
Format profile : High@L4.1
Format settings : CABAC / 4 Ref Frames
Format settings, CABAC : Yes
Format settings, RefFrames : 4 frames
Codec ID : 27
Duration : 30 min 1 s
Bit rate mode : Variable
Bit rate : 14.7 Mb/s
Maximum bit rate : 30.0 Mb/s
Width : 1 920 pixels
Height : 1 080 pixels
Display aspect ratio : 16:9
Frame rate : 29.970 (30000/1001) FPS
Standard : NTSC
Color space : YUV
Chroma subsampling : 4:2:0
Bit depth : 8 bits
Scan type : Interlaced
Scan type, store method : Separated fields
Scan order : Top Field First
Bits/(Pixel*Frame) : 0.237
Stream size : 3.09 GiB (79%)
Color range : Limited
Color primaries : BT.709
Transfer characteristics : BT.709
Matrix coefficients : BT.709

Audio #1
ID : 4352 (0x1100)
Menu ID : 1 (0x1)
Format : PCM
Format settings : Big / Signed
Muxing mode : Blu-ray
Codec ID : 128
Duration : 30 min 1 s
Bit rate mode : Constant
Bit rate : 1 536 kb/s
Channel(s) : 2 channels
Channel layout : L R
Sampling rate : 48.0 kHz
Bit depth : 16 bits
Stream size : 330 MiB (8%)

Audio #2
ID : 4353 (0x1101)
Menu ID : 1 (0x1)
Format : PCM
Format settings : Big / Signed
Muxing mode : Blu-ray
Codec ID : 128
Duration : 30 min 1 s
Bit rate mode : Constant
Bit rate : 1 536 kb/s
Channel(s) : 2 channels
Channel layout : L R
Sampling rate : 48.0 kHz
Bit depth : 16 bits
Stream size : 330 MiB (8%)

Text #1
ID : 4608 (0x1200)
Menu ID : 1 (0x1)
Format : PGS
Codec ID : 144

Text #2
ID : 4609 (0x1201)
Menu ID : 1 (0x1)
Format : PGS
Codec ID : 144

Shakkin Shimai
借金姉妹
Paid & Laid
Debt Sisters
Долг сестёр


Год выпуска: 2007-2008
Жанр: big breast, oral, toys, bondage, creampie
Серии: ep. 1-2 of 2
Продолжительность: 28+38mn
Цензура: Отсутствует

Озвучка: Японская оригинальная
Озвучка: Английская профессиональная (полное дублирование)
Субтитры: Английские встроенные BGS

Режиссер: Wada Heisaku, Tomi Tetsuyoshi
Автор оригинала: Selen
Студия: Blue Cat, Bootleg

Описание: Однажды в школе Касуми угрожал человек, требуя вернуть ему долг, который остался от её отца или же чтобы она заплатила натурой. Окура увидел как его любимой учительнице угрожают и помог Касуми прогнать мужика. Окура планирует помочь ей, он дастал деньги ,чтобы отдать их Касуми для выплаты долга. Однако она отклоняет его предложение не хотев впутывать ещё кого-то. Окура, боясь что девушка в которую он влюблён достанется этим головорезами, принимает решение сомому купить её. Платить деньги ей за секс с ним. Теперь Касуми его преданная сексуальная рабыня. Правда недостаёт ещё кое чего, а именно её младшей сестры и одноклассницы Окуры милой девочки Кахо.

anidb

Качество видео: Blu-Ray
Формат видео: BD Video
Видео: AVC, 1920-1080, 16-9 (4-3 с чёрными полосами), 29.97 fps, 18.6 mbps
Аудио 1: jap, PCM, Stereo, 48.0 KHz, 1536 Kbps
Аудио 2: eng, PCM, Stereo, 48.0 KHz, 1536 Kbps

General
ID : 0 (0x0)
Complete name : 00003.m2ts
Format : BDAV
Format/Info : Blu-ray Video
File size : 4.50 GiB
Duration : 28 min 12 s
Overall bit rate mode : Variable
Overall bit rate : 22.8 Mb/s
Maximum Overall bit rate : 48.0 Mb/s

Video
ID : 4113 (0x1011)
Menu ID : 1 (0x1)
Format : AVC
Format/Info : Advanced Video Codec
Format profile : High@L4.1
Format settings : CABAC / 4 Ref Frames
Format settings, CABAC : Yes
Format settings, RefFrames : 4 frames
Codec ID : 27
Duration : 28 min 12 s
Bit rate mode : Variable
Bit rate : 18.8 Mb/s
Maximum bit rate : 30.0 Mb/s
Width : 1 920 pixels
Height : 1 080 pixels
Display aspect ratio : 16:9
Frame rate : 29.970 (30000/1001) FPS
Standard : NTSC
Color space : YUV
Chroma subsampling : 4:2:0
Bit depth : 8 bits
Scan type : Interlaced
Scan type, store method : Separated fields
Scan order : Top Field First
Bits/(Pixel*Frame) : 0.303
Stream size : 3.71 GiB (83%)
Color range : Limited
Color primaries : BT.709
Transfer characteristics : BT.709
Matrix coefficients : BT.709

Audio #1
ID : 4352 (0x1100)
Menu ID : 1 (0x1)
Format : PCM
Format settings : Big / Signed
Muxing mode : Blu-ray
Codec ID : 128
Duration : 28 min 12 s
Bit rate mode : Constant
Bit rate : 1 536 kb/s
Channel(s) : 2 channels
Channel layout : L R
Sampling rate : 48.0 kHz
Bit depth : 16 bits
Stream size : 310 MiB (7%)

Audio #2
ID : 4353 (0x1101)
Menu ID : 1 (0x1)
Format : PCM
Format settings : Big / Signed
Muxing mode : Blu-ray
Codec ID : 128
Duration : 28 min 12 s
Bit rate mode : Constant
Bit rate : 1 536 kb/s
Channel(s) : 2 channels
Channel layout : L R
Sampling rate : 48.0 kHz
Bit depth : 16 bits
Stream size : 310 MiB (7%)

Text #1
ID : 4608 (0x1200)
Menu ID : 1 (0x1)
Format : PGS
Codec ID : 144

Text #2
ID : 4609 (0x1201)
Menu ID : 1 (0x1)
Format : PGS
Codec ID : 144


Внимание! AdBlock блокирует показ скриншотов, все вопросы к разработчикам )))
Трекер:  [ 16-Май-2020 00:03 ]

  

Скачать .torrent

Размер .torrent файла 101 KB


Размер: 19.23 GB
Хэш (hash) релиза: 1dfd3e4e1ca3fad6cad615b94a9444bbc0c854c3

Еще никто не оставлял запись к записи скачать торрент Hentai heaven collection 03: Tokubetsu Byoutou Double Duty Nurses . Будь первым!

!Обратная связь