Скачать порно через торрент Hentai heaven collection 08: Ane Kyun! Joshi ga Ie ni Kita! Волнительная сестра! UnionPeer.org бесплатно онлайн HD качество

Скачать новое порно 2015, 2014 новинки через торрент UnionPeer.org

Порно торрент бесплатно ЮнионПир.орг

Статистика раздачи
Размер:  10.41 GB   |    Зарегистрирован:  1 год 1 месяц   |    .torrent скачан:  360 раз   |   

Пиры будут получены при скачивании

   
 
Автор Сообщение

Galfimbul

avatar Galfimbul


Ane Kyun! Joshi ga Ie ni Kita!
姉キュン! ~女子が家に来た!~
Волнительная сестра!


Год выпуска: 2014
Жанр: incest, oral, yuri, group, creampie
Серии: ep. 1 of 1
Продолжительность: 24mn
Цензура: Отсутствует

Озвучка: Японская оригинальная
Озвучка: Английская профессиональная (полное дублирование)
Субтитры: Английские встроенные BGS

Автор оригинала: Yuzuki N`
Режиссёр: Oota Hideta
Студия: Studio 1st, PashminaA

Описание: Сестрёнка любит братика, купив сладости возвращается домой обрадовать его. Открыв двери в комнату брата, она видит его занимающего с одноклассницей.

anidb

Качество видео: Blu-Ray
Формат видео: BD Video
Видео: AVC, 1920-1080, 16-9, 23.976 fps, 24.1 mbps
Аудио 1: jap, PCM, Stereo, 48.0 KHz, 1536 Kbps
Аудио 2: eng, PCM, Stereo, 48.0 KHz, 1536 Kbps

General
ID : 0 (0x0)
Complete name : 00000.m2ts
Format : BDAV
Format/Info : Blu-ray Video
File size : 5.12 GiB
Duration : 25 min 53 s
Overall bit rate mode : Variable
Overall bit rate : 28.3 Mb/s
Maximum Overall bit rate : 48.0 Mb/s

Video
ID : 4113 (0x1011)
Menu ID : 1 (0x1)
Format : AVC
Format/Info : Advanced Video Codec
Format profile : High@L4.1
Format settings : CABAC / 4 Ref Frames
Format settings, CABAC : Yes
Format settings, Reference frames : 4 frames
Codec ID : 27
Duration : 25 min 53 s
Bit rate mode : Variable
Bit rate : 24.1 Mb/s
Maximum bit rate : 30.0 Mb/s
Width : 1 920 pixels
Height : 1 080 pixels
Display aspect ratio : 16:9
Frame rate : 23.976 (24000/1001) FPS
Color space : YUV
Chroma subsampling : 4:2:0
Bit depth : 8 bits
Scan type : Progressive
Bits/(Pixel*Frame) : 0.485
Stream size : 4.36 GiB (85%)
Color range : Limited
Color primaries : BT.709
Transfer characteristics : BT.709
Matrix coefficients : BT.709

Audio #1
ID : 4352 (0x1100)
Menu ID : 1 (0x1)
Format : PCM
Format settings : Big / Signed
Muxing mode : Blu-ray
Codec ID : 128
Duration : 25 min 53 s
Bit rate mode : Constant
Bit rate : 1 536 kb/s
Channel(s) : 2 channels
Channel layout : L R
Sampling rate : 48.0 kHz
Bit depth : 16 bits
Stream size : 285 MiB (5%)

Audio #2
ID : 4353 (0x1101)
Menu ID : 1 (0x1)
Format : PCM
Format settings : Big / Signed
Muxing mode : Blu-ray
Codec ID : 128
Duration : 25 min 53 s
Bit rate mode : Constant
Bit rate : 1 536 kb/s
Channel(s) : 2 channels
Channel layout : L R
Sampling rate : 48.0 kHz
Bit depth : 16 bits
Stream size : 285 MiB (5%)

Text
ID : 4608 (0x1200)
Menu ID : 1 (0x1)
Format : PGS
Codec ID : 144

Amanee!
アマネェ!


Год выпуска: 2013
Жанр: oral, big breast, paizuri, creampie
Серии: ep. 1 of 1
Продолжительность: 25mn
Цензура: Отсутствует

Озвучка: Японская оригинальная
Озвучка: Английская профессиональная (полное дублирование)
Субтитры: Английские встроенные BGS

Автор оригинала: Shiomaneki
Режиссёр: Oota Hideta
Студия: Lyrics, Matsu Jun, PashminaA

Описание: Молодой человек по имени Роичи приходит в гости к другу, где его соблазняет тётя этого самого друга.

anidb

Качество видео: Blu-Ray
Формат видео: BD Video
Видео: AVC, 1920-1080, 16-9, 23.976 fps, 21.6 mbps
Аудио 1: jap, PCM, Stereo, 48.0 KHz, 1536 Kbps
Аудио 2: eng, PCM, Stereo, 48.0 KHz, 1536 Kbps

General
ID : 0 (0x0)
Complete name : 00001.m2ts
Format : BDAV
Format/Info : Blu-ray Video
File size : 4.54 GiB
Duration : 25 min 16 s
Overall bit rate mode : Variable
Overall bit rate : 25.7 Mb/s
Maximum Overall bit rate : 48.0 Mb/s

Video
ID : 4113 (0x1011)
Menu ID : 1 (0x1)
Format : AVC
Format/Info : Advanced Video Codec
Format profile : High@L4.1
Format settings : CABAC / 4 Ref Frames
Format settings, CABAC : Yes
Format settings, Reference frames : 4 frames
Codec ID : 27
Duration : 25 min 16 s
Bit rate mode : Variable
Bit rate : 21.6 Mb/s
Maximum bit rate : 30.0 Mb/s
Width : 1 920 pixels
Height : 1 080 pixels
Display aspect ratio : 16:9
Frame rate : 23.976 (24000/1001) FPS
Color space : YUV
Chroma subsampling : 4:2:0
Bit depth : 8 bits
Scan type : Progressive
Bits/(Pixel*Frame) : 0.434
Stream size : 3.81 GiB (84%)
Color range : Limited
Color primaries : BT.709
Transfer characteristics : BT.709
Matrix coefficients : BT.709

Audio #1
ID : 4352 (0x1100)
Menu ID : 1 (0x1)
Format : PCM
Format settings : Big / Signed
Muxing mode : Blu-ray
Codec ID : 128
Duration : 25 min 16 s
Bit rate mode : Constant
Bit rate : 1 536 kb/s
Channel(s) : 2 channels
Channel layout : L R
Sampling rate : 48.0 kHz
Bit depth : 16 bits
Stream size : 278 MiB (6%)

Audio #2
ID : 4353 (0x1101)
Menu ID : 1 (0x1)
Format : PCM
Format settings : Big / Signed
Muxing mode : Blu-ray
Codec ID : 128
Duration : 25 min 16 s
Bit rate mode : Constant
Bit rate : 1 536 kb/s
Channel(s) : 2 channels
Channel layout : L R
Sampling rate : 48.0 kHz
Bit depth : 16 bits
Stream size : 278 MiB (6%)

Text
ID : 4608 (0x1200)
Menu ID : 1 (0x1)
Format : PGS
Codec ID : 144


Внимание! AdBlock блокирует показ скриншотов, все вопросы к разработчикам )))
Трекер:  [ 17-Май-2020 00:03 ]

  

Скачать .torrent

Размер .torrent файла 55 KB


Размер: 10.41 GB
Хэш (hash) релиза: bfc760716ceb87566b430f07d0fae92a73ed820e

Еще никто не оставлял запись к записи скачать торрент Hentai heaven collection 08: Ane Kyun! Joshi ga Ie ni Kita! Волнительная сестра! . Будь первым!

!Обратная связь