Скачать через торрент Видеорегистратор Body Cam Фильм бесплатно в хорошем качестве torrent

Скачивайте на UnionPeer.org фильмы через торрент без регистрации. Новинки кино в хорошем качестве через торрент. На UnionPeer.org можно скачать через торрент фильмы 2014 и 2015 годов. Самые новые фильмы.

Скачать торрент Видеорегистратор Body Cam бесплатно через .torrent фильм мультфильм сериал

Статистика раздачи
Размер:  3.23 GB   |    Зарегистрирован:  1 год 6 месяцев   |    .torrent скачан:  351 раз   |   

Пиры будут получены при скачивании

 

Скачать Видеорегистратор / Body Cam (2020) WEBRip 720p | L через torrent

 
 
Автор Сообщение

Galfimbul

avatar Galfimbul


Видеорегистратор /Body Cam

Год выхода: 2020
Жанр: Ужасы, триллер, детектив
Режиссер: Малик Бут
В ролях: Мэри Джей Блайдж, Нат Вулф, Аника Нони Роуз, Тео Росси, Дэвид Зайас, Деметриус Гросс, Сильвия Грэйс Крим, Сью-Линн Ансари, Йен Касселберри, Лара Грайс

О фильме:
Когда рутинная проверка документов оборачивается жестоким и мистическим убийством её бывшего напарника и близкого друга, Рене решает взять расследование в свои руки. Но по мере распутывания клубка, начинают появляться всё более странные факты, указывающие на сверхъестественный характер убийства.



Страна: США
Студия: Ace Entertainment, Paramount Players
Продолжительность: 01:36:39
Перевод: Любительский многоголосый | Mallorn

Файл
Кодек: AVC
Качество: WEBRip 720p
Видео: MPEG-4 AVC, 3500 Kбит/с, 1280x534, 23.976 кадр/с
Аудио #1: Русский (АС3, 6 ch, 640 Кбит/с, 48.0 KHz) Любительский (многоголосый, закадровый) Mallorn
Аудио #2: Английский (АС3, 6 ch, 640 Кбит/с, 48.0 KHz)
Субтитры: Русские (Full), английские
? Без Рекламы!
Трейлер
Источник: Body.Cam.2020.1080p.AMZN.WEB-DL.DDP5.1.x264-NTG
General
Unique ID : 187225286954851452463023008501650368835 (0x8CDA47558F3A67EBA2141B79530B2943)
Complete name : Body.Cam.2020.WEBRip.720p.mkv
Format : Matroska
Format version : Version 4
File size : 3.23 GiB
Duration : 1 h 36 min
Overall bit rate : 4 781 kb/s
Encoded date : UTC 2020-05-23 16:27:08
Writing application : mkvmerge v7.1.0 ('Good Love') 64bit built on Jul 27 2014 13:06:55
Writing library : libebml v1.3.0 + libmatroska v1.4.1

Video
ID : 1
Format : AVC
Format/Info : Advanced Video Codec
Format profile : High@L4.1
Format settings : CABAC / 9 Ref Frames
Format settings, CABAC : Yes
Format settings, Reference fra : 9 frames
Codec ID : V_MPEG4/ISO/AVC
Duration : 1 h 36 min
Bit rate : 3 500 kb/s
Width : 1 280 pixels
Height : 534 pixels
Display aspect ratio : 2.40:1
Frame rate mode : Constant
Frame rate : 23.976 (24000/1001) FPS
Color space : YUV
Chroma subsampling : 4:2:0
Bit depth : 8 bits
Scan type : Progressive
Bits/(Pixel*Frame) : 0.214
Stream size : 2.36 GiB (73%)
Writing library : x264 core 157 r2958 57baac4
Encoding settings : cabac=1 / ref=9 / deblock=1:-3:-3 / analyse=0x3:0x133 / me=umh / subme=11 / psy=1 / psy_rd=1.00:0.00 / mixed_ref=1 / me_range=48 / chroma_me=1 / trellis=2 / 8x8dct=1 / cqm=0 / deadzone=21,11 / fast_pskip=1 / chroma_qp_offset=-2 / threads=17 / lookahead_threads=4 / sliced_threads=0 / nr=0 / decimate=1 / interlaced=0 / bluray_compat=0 / constrained_intra=0 / bframes=10 / b_pyramid=2 / b_adapt=2 / b_bias=0 / direct=3 / weightb=1 / open_gop=0 / weightp=2 / keyint=240 / keyint_min=24 / scenecut=40 / intra_refresh=0 / rc_lookahead=60 / rc=2pass / mbtree=1 / bitrate=3500 / ratetol=1.0 / qcomp=0.60 / qpmin=0 / qpmax=69 / qpstep=4 / cplxblur=20.0 / qblur=0.5 / ip_ratio=1.40 / aq=1:1.00
Language : English
Default : Yes
Forced : No
Color range : Limited
Color primaries : BT.709
Transfer characteristics : BT.709
Matrix coefficients : BT.709

Audio #1
ID : 2
Format : AC-3
Format/Info : Audio Coding 3
Commercial name : Dolby Digital
Codec ID : A_AC3
Duration : 1 h 36 min
Bit rate mode : Constant
Bit rate : 640 kb/s
Channel(s) : 6 channels
Channel layout : L R C LFE Ls Rs
Sampling rate : 48.0 kHz
Frame rate : 31.250 FPS (1536 SPF)
Compression mode : Lossy
Stream size : 442 MiB (13%)
Title : Mallorn
Language : Russian
Service kind : Complete Main
Default : Yes
Forced : No

Audio #2
ID : 3
Format : AC-3
Format/Info : Audio Coding 3
Commercial name : Dolby Digital
Codec ID : A_AC3
Duration : 1 h 36 min
Bit rate mode : Constant
Bit rate : 640 kb/s
Channel(s) : 6 channels
Channel layout : L R C LFE Ls Rs
Sampling rate : 48.0 kHz
Frame rate : 31.250 FPS (1536 SPF)
Compression mode : Lossy
Stream size : 442 MiB (13%)
Language : English
Service kind : Complete Main
Default : No
Forced : No

Text #1
ID : 4
Format : UTF-8
Codec ID : S_TEXT/UTF8
Codec ID/Info : UTF-8 Plain Text
Duration : 1 h 29 min
Bit rate : 60 b/s
Count of elements : 825
Stream size : 39.5 KiB (0%)
Title : Mallorn
Language : Russian
Default : No
Forced : No

Text #2
ID : 5
Format : UTF-8
Codec ID : S_TEXT/UTF8
Codec ID/Info : UTF-8 Plain Text
Duration : 1 h 29 min
Bit rate : 40 b/s
Count of elements : 827
Stream size : 26.7 KiB (0%)
Language : English
Default : No
Forced : No

Text #3
ID : 6
Format : UTF-8
Codec ID : S_TEXT/UTF8
Codec ID/Info : UTF-8 Plain Text
Duration : 1 h 29 min
Bit rate : 44 b/s
Count of elements : 991
Stream size : 29.5 KiB (0%)
Title : SDH
Language : English
Default : No
Forced : No
Источник http://listRutor.org

Внимание! AdBlock блокирует показ скриншотов, все вопросы к разработчикам )))
Трекер:  [ 23-Май-2020 23:20 ]

  

Скачать .torrent

Размер .torrent файла 16 KB


Размер: 3.23 GB
Хэш (hash) релиза: 0a51b430927eac1e177defbd8ccb52ddf6beef8f
Подписка на обновления:

Еще никто не оставлял запись к записи скачать торрент Видеорегистратор Body Cam . Будь первым!

!Обратная связь