Скачать порно через торрент [VirtualTaboo.com] Kathy Anderson & Lady Bug & Sofia Lee UnionPeer.org бесплатно онлайн HD качество

Скачать новое порно 2015, 2014 новинки через торрент UnionPeer.org

Порно торрент бесплатно ЮнионПир.орг

Статистика раздачи
Размер:  7.76 GB   |    Зарегистрирован:  1 год 1 месяц   |    .torrent скачан:  1048 раз   |   
Раздают:  1  
   
 
Автор Сообщение

Galfimbul

avatar Galfimbul




Имя актрисы: Kathy Anderson & Lady Bug & Sofia Lee
Название ролика: Family Chronicles: New Maid Is Great
Сайт: VirtualTaboo.com

Год производства: 2019 г.
Жанр: Big tits, Blowjob, Cowgirl, Cum on face, Family sex, Group sex, MILF, Natural tits, Old and young, POV, Shaved pussy, Stepdaughter, Stepmom, Taboo porn, Teen
Продолжительность: 54:49

Описание: It is a beautiful day for a picnic for Kathy Anderson, cute daughter Lady Bug, Kathy''''s new husband and his handsome son. Lady Bug likes teasing her new stepbrother and takes advantage of her short skirt and no panties to give him some sexy flashes. Father sees what they are doing and ends the picnic abruptly. The next morning, naughty little Lady Bug teases her stepbrother again and notices that his cock is hard. She gets down on her knees and starts sucking. Loving his big cock, Lady Bug invites her stepbrother to be part of a naughty trick on their parents. He does not want her to stop but agrees. Lady Bug is still upset at her stepfather for shutting down her flirting and she knows why he did it. Sneaking into parents'''' bedroom, the step-siblings slide into bed with mom and dad. Lady Bug takes her stepdaddy''''s dick into her mouth and sucks it while encouraging her stepbrother to slide his cock into mother. When parents wake up, they offer a weak protest but are reminded of how this isn''''t the first time. Just a year ago, the four of them broke out into an orgy over dinner and though it hasn''''t happened since, Kathy and her husband cannot deny how much they love walking up this way. They trade partners and are right in the middle of a hot four-way when they get a surprise visit from their housekeeper Sofia Lee. She is shocked by what she sees, but Lady Bug thinks quickly and invites the busty maid to sample the two huge cocks and she jumps at the chance. While getting nailed by her hung stepfather, Lady Bug watches Sophia ride brother''''s big dick. Both lucky guys enjoy the feel of three lovely women working their cocks until they explode all over faces and breasts. With smiles on everyone''''s faces, it is clear that Sofia will be invited to the next family picnic.

Тип HD видео: 1440p
Тип устройства: Samsung Gear VR
Тип 3D: SideBySide
Формат видео: MP4
Видео: MPEG4 Video (H264) 2880x1440 59.94fps 20000kbps
Аудио: AAC 48000Hz stereo 253kbps

General
Complete name : family-chronicles-new-maid-is-great-files-gear.mp4
Format : MPEG-4
Format profile : Base Media / Version 2
Codec ID : mp42
File size : 7.76 GiB
Duration : 54mn 48s
Overall bit rate mode : Variable
Overall bit rate : 20.3 Mbps
Encoded date : UTC 2019-05-01 00:43:47
Tagged date : UTC 2019-05-01 02:26:32
©TIM : 00:00:00:00
©TSC : 60000
©TSZ : 1001

Video
ID : 1
Format : AVC
Format/Info : Advanced Video Codec
Format profile : Main@L5.1
Format settings, CABAC : Yes
Format settings, ReFrames : 4 frames
Codec ID : avc1
Codec ID/Info : Advanced Video Coding
Duration : 54mn 48s
Bit rate : 20.0 Mbps
Width : 2 880 pixels
Height : 1 440 pixels
Display aspect ratio : 2.000
Frame rate mode : Constant
Frame rate : 59.940 fps
Color space : YUV
Chroma subsampling : 4:2:0
Bit depth : 8 bits
Scan type : Progressive
Bits/(Pixel*Frame) : 0.080
Stream size : 7.66 GiB (99%)
Language : English
Encoded date : UTC 2019-05-01 00:43:48
Tagged date : UTC 2019-05-01 00:43:48
Color primaries : BT.709
Transfer characteristics : BT.709
Matrix coefficients : BT.709

Audio
ID : 2
Format : AAC
Format/Info : Advanced Audio Codec
Format profile : LC
Codec ID : 40
Duration : 54mn 48s
Source duration : 54mn 48s
Bit rate mode : Variable
Bit rate : 253 Kbps
Maximum bit rate : 363 Kbps
Channel(s) : 2 channels
Channel positions : Front: L R
Sampling rate : 48.0 KHz
Compression mode : Lossy
Stream size : 99.3 MiB (1%)
Source stream size : 99.3 MiB (1%)
Language : English
Encoded date : UTC 2019-05-01 00:43:49
Tagged date : UTC 2019-05-01 00:43:49


Внимание! AdBlock блокирует показ скриншотов, все вопросы к разработчикам )))
Трекер:  [ 21-Июн-2020 18:36 ]

  

Скачать .torrent

Размер .torrent файла 20 KB


Размер: 7.76 GB
Хэш (hash) релиза: b42da20dae94932d6c207e4f3ba88ef7ff223608

Еще никто не оставлял запись к записи скачать торрент [VirtualTaboo.com] Kathy Anderson & Lady Bug & Sofia Lee . Будь первым!

!Обратная связь