Скачать через торрент Смертоносные куклы Куклы-убийцы Фильм бесплатно в хорошем качестве torrent

Скачивайте на UnionPeer.org фильмы через торрент без регистрации. Новинки кино в хорошем качестве через торрент. На UnionPeer.org можно скачать через торрент фильмы 2014 и 2015 годов. Самые новые фильмы.

Скачать торрент Смертоносные куклы Куклы-убийцы бесплатно через .torrent фильм мультфильм сериал

Статистика раздачи
Размер:  1.37 GB   |    Зарегистрирован:  1 год 4 месяца   |    .torrent скачан:  158 раз   |   

Пиры будут получены при скачивании

   
 
Автор Сообщение

Galfimbul

avatar Galfimbul


Смертоносные куклы / Куклы-убийцы / Смертоносная пантера / Jing tian long hu bao / Lethal Panther / Deadly China Dolls

«Hell Hath No Fury Like a Femme Fatale Scorned!»

Страна: Тайвань, Гонконг
Жанр: Боевик
Год выпуска: 1990
Продолжительность: 01:33:10

Перевод: Одноголосый закадровый [ПОМОГИТЕ ОПОЗНАТЬ]
Субтитры: нет
Режиссер: Годфри Хо / Godfrey Ho

В ролях: Алекс Фун, Уилльям Хо, Сибелль Ху, Мария Джо, Джон Лам, Клемент Ли, Чунг Лин, Кэн Ло, Уолтер Мак, Йоко Миямото

Описание: Аннотация от alenavova
Фальшивомонетчиков в Гонконге - как собак нерезаных! Хорошенькая Бетти Ли из ЦРУ их успешно ловит и лупит, - как-никак, черный пояс... Пиф-паф! - и два мафиозных босса, Лонг из Гонконга и Джеймс из Америки, ложатся рядышком навеки, - полный интернационал. А красавица-киллер Линь удовлетворенно опускает автомат. Новое задание Бетти Ли из ЦРУ - выследить босса филиппинской мафии Вон Шана и взять с поличным. Новое задание киллера Линь - убрать этого самого Вон Шана, и за большие деньги! Линь опередила Битти на один выстрел. Вон Шан отправился на кладбище, а прелестные куколки-убийцы передрались. Дружки Вон Шана решили отомстить обеим драчуньям. Поэтому девицам пришлось бороться с мафией сообща. Как говорится, хулиганы, прячьтесь в щель, - девки вышли на панель!..

Доп. информация: Оцифровка VHS (личный архив) и получение VHSRip [size=14]alenavova

Сэмпл: https://yadi.sk/i/SpHqNyt0dUP-yw

Качество видео: VHSRip
Формат видео: AVI

Видео: 704x400 (1.76:1), 25 fps, XviD build 73 ~1906 kbps avg, 0.27 bit/pixel
Аудио: 48 kHz, AC3 Dolby Digital, 2/0 (L,R) ch, ~192 kbps


Смертоносные куклы Jing tian long hu bao [by alenavova].aviFormat : AVIFormat/Info : Audio Video InterleaveFile size : 1.37 GiBDuration : 1 h 33 minOverall bit rate : 2 109 kb/sMovie name : Смертоносные куклы Jing tian long hu bao [by alenavova]Director : by alenavoavaWriting application : VirtualDubMod 1.5.10.3 | www.virtualdub-fr.org || (build 2550/release)Copyright : Edich2Comment : RuTracker.org

VideoID : 0Format : MPEG-4 VisualFormat profile : Advanced Simple@L5Format settings : BVOP1 / Custom MatrixFormat settings, BVOP : 1Format settings, QPel : NoFormat settings, GMC : No warppointsFormat settings, Matrix : CustomCodec ID : XVIDCodec ID/Hint : XviDDuration : 1 h 33 minBit rate : 1 907 kb/sWidth : 704 pixelsHeight : 400 pixelsDisplay aspect ratio : 16:9Frame rate : 25.000 FPSColor space : YUVChroma subsampling : 4:2:0Bit depth : 8 bitsScan type : ProgressiveCompression mode : LossyBits/(Pixel*Frame) : 0.271Stream size : 1.24 GiB (90%)Writing library : XviD 73

AudioID : 1Format : AC-3Format/Info : Audio Coding 3Commercial name : Dolby DigitalCodec ID : 2000Duration : 1 h 33 minBit rate mode : ConstantBit rate : 192 kb/sChannel(s) : 2 channelsChannel layout : L RSampling rate : 48.0 kHzFrame rate : 31.250 FPS (1536 SPF)Compression mode : LossyStream size : 128 MiB (9%)Alignment : Split across interleavesInterleave, duration : 40 ms (1.00 video frame)Interleave, preload duratio : 500 msService kind : Complete Main


Внимание! AdBlock блокирует показ скриншотов, все вопросы к разработчикам )))
Трекер:  [ 28-Июн-2020 08:52 ]

  

Скачать .torrent

Размер .torrent файла 14 KB


Размер: 1.37 GB
Хэш (hash) релиза: 71433fe33ba43668a092513acf5f897c8e62766c
Подписка на обновления:

Еще никто не оставлял запись к записи скачать торрент Смертоносные куклы Куклы-убийцы . Будь первым!

!Обратная связь