Скачать через торрент Очень плохой монах Порочный монах Фильм бесплатно в хорошем качестве torrent

Скачивайте на UnionPeer.org фильмы через торрент без регистрации. Новинки кино в хорошем качестве через торрент. На UnionPeer.org можно скачать через торрент фильмы 2014 и 2015 годов. Самые новые фильмы.

Скачать торрент Очень плохой монах Порочный монах бесплатно через .torrent фильм мультфильм сериал

Статистика раздачи
Размер:  1.37 GB   |    Зарегистрирован:  1 год 4 месяца   |    .torrent скачан:  130 раз   |   

Пиры будут получены при скачивании

   
 
Автор Сообщение

Galfimbul

avatar Galfimbul


Очень плохой монах / Порочный монах
Gokuaku bozu / Wicked Priest


Страна: Япония
Жанр: Криминал
Год выпуска: 1968
Продолжительность: 01:26:35

Перевод: Одноголосый закадровый | Виктор Береговых
Субтитры: английские (DVD), русские (В.Береговых)
Оригинальная аудиодорожка: японский

Режиссер: Киёси Саэки / Kiyoshi Saeki

В ролях:
Томисабуро Вакаяма, Бунта Сугавара, Кэндзиро Исияма, Хосэй Комацу, Масуми Татибана, Мари Сираки, Тацуо Эндо, Канби Фудзияма, Тэруо Исияма, Кэйко Кодзима

Описание:
Монах Синкай (Томисабуро Вакаяма) любит женщин, выпивку, азартные игры, за что настроил против себя всех монахов своего храма, кроме настоятеля, который считает Синкая своим сыном и прощает ему все его грехи. Однажды Синкай вступает в противоборство с бандой Кито, которые обманом и силой заставляют приезжих молодых девушек работать в борделе.
Скачать сэмпл | IMDb | КиноПоиск |
Заказ перевода Виктора Береговых: vitolinform

Качество видео: DVDRip (исходник для рипа: Wicked Priest / 极恶坊主 1968 576p FRA DVD PAL DD2.0 DIY-ADC)
Формат видео: AVI

Видео: 704x288 (2,40:1), 25,000 fps, XviD build 69 ~1872 kbps avg, 0.369 bit/pixel
Аудио 1: 48 kHz, AC3 Dolby Digital, 2/0 (L,R) ch, ~192 kbps | Одноголосый закадровый (В.Береговых)
Аудио 2: 48 kHz, AC3 Dolby Digital, 2/0 (L,R) ch, ~192 kbps | Японский
Формат субтитров: softsub (SRT)


ОбщееПолное имя : C:\Ochen.plohoj.monah.1968.DVDRip\Ochen.plohoj.monah.1968.DVDRip.aviФормат : AVIФормат/Информация : Audio Video InterleaveРазмер файла : 1,37 ГбайтПродолжительность : 1 ч. 26 м.Общий поток : 2 270 Кбит/секНазвание фильма : Очень плохой монах / Порочный монах / Gokuaku bozu / Wicked Priest (1968) DVDRipРежиссёр : Киёси Саэки / Kiyoshi SaekiЖанр : КриминалПрограмма кодирования : VirtualDubMod 1.5.10.2 (build 2542/release)Формат оригинала/Имя : Художественный фильмАвторское право : Япония, Toei CompanyПримечание : Rip by vitolinform

ВидеоИдентификатор : 0Формат : MPEG-4 VisualПрофиль формата : Advanced Simple@L5Настройки формата : BVOP1 / Custom MatrixПараметр BVOP формата : 1Параметр QPel формата : НетПараметр GMC формата : Без точки переходаПараметр матрицы формата : ВыборочнаяИдентификатор кодека : XVIDИдентификатор кодека/Подсказка : XviDПродолжительность : 1 ч. 26 м.Битрейт : 1 872 Кбит/секШирина : 704 пикселяВысота : 288 пикселейСоотношение сторон : 2,40:1Частота кадров : 25,000 кадров/секЦветовое пространство : YUVСубдискретизация насыщенности : 4:2:0Битовая глубина : 8 битТип развёртки : ПрогрессивнаяМетод сжатия : С потерямиБит/(Пиксели*Кадры) : 0.369Размер потока : 1,13 Гбайт (82%)Библиотека кодирования : XviD 69

Аудио #1Идентификатор : 1Формат : AC-3Формат/Информация : Audio Coding 3Коммерческое название : Dolby DigitalИдентификатор кодека : 2000Продолжительность : 1 ч. 26 м.Вид битрейта : ПостоянныйБитрейт : 192 Кбит/секКаналы : 2 каналаChannel layout : L RЧастота : 48,0 КГцЧастота кадров : 31,250 кадров/сек (1536 SPF)Метод сжатия : С потерямиРазмер потока : 119 Мбайт (8%)Выравнивание : Разделение по промежуткамПродолжительность промежутка : 40 мс. (1,00 видеокадр)Время предзагрузки промежутка : 500 мс.Заголовок : Russian (VO Виктор Береговых)Service kind : Complete Main

Аудио #2Идентификатор : 2Формат : AC-3Формат/Информация : Audio Coding 3Коммерческое название : Dolby DigitalИдентификатор кодека : 2000Продолжительность : 1 ч. 26 м.Вид битрейта : ПостоянныйБитрейт : 192 Кбит/секКаналы : 2 каналаChannel layout : L RЧастота : 48,0 КГцЧастота кадров : 31,250 кадров/сек (1536 SPF)Метод сжатия : С потерямиРазмер потока : 119 Мбайт (8%)Выравнивание : Разделение по промежуткамПродолжительность промежутка : 40 мс. (1,00 видеокадр)Время предзагрузки промежутка : 500 мс.Заголовок : JapaneseService kind : Complete Main


Внимание! AdBlock блокирует показ скриншотов, все вопросы к разработчикам )))
Трекер:  [ 28-Июн-2020 08:52 ]

  

Скачать .torrent

Размер .torrent файла 14 KB


Размер: 1.37 GB
Хэш (hash) релиза: 6b89031363886901af1654a6b288e0957f3951a8
Подписка на обновления:

Еще никто не оставлял запись к записи скачать торрент Очень плохой монах Порочный монах . Будь первым!

!Обратная связь