Скачать через торрент музыку бесплатно без регистрации torrent

Статистика раздачи
Размер:  398 MB   |    Зарегистрирован:  1 год 4 месяца   |    .torrent скачан:  74 раза   |   
Раздают:  1  
 

Скачать (Electronic) [CD] ATB - Trilogy - 29 Apr 2007, FLAC (tracks+.cue), lossless через torrent

 
 
Автор Сообщение

Galfimbul

avatar Galfimbul


ATB / Trilogy

Жанр: Electronic
Носитель: CD, Album
Страна-производитель диска (релиза): Ukraine
Год издания: 29 Apr 2007
Издатель (лейбл): Одиссей
Номер по каталогу: 09020
Страна исполнителя (группы): Germany
Аудиокодек: FLAC (*.flac)
Тип рипа: tracks+.cue
Продолжительность: 56:16
Источник: собственный рип
Наличие сканов в содержимом раздачи: да
Треклист:
01. Justify (3:47)
Vocals – Jennifer Karr
02. Desperate Religion (4:37)
Vocals – Karen Ires
03. Renegade (5:36)
Vocals – Heather Nova
04. Beautiful Worlds (5:07)
05. Stars Come Out (3:27)
Vocals – Heather Nova
06. Feel Alive (3:44)
Vocals – Jan Loechel
07. Made Of Glass (4:18)
Vocals – Heather Nova
08. Alcarda (4:58)
09. These Days (5:34)
Vocals – Jeppe Riddervold
10. Better Give Up (5:08)
Vocals – Jan Loechel
11. Some Things Just Are The Way They Are (5:26)
Vocals – Jeppe Riddervold
12. The Chosen Ones (4:13)
Vocals – Jan Loechel
 
Exact Audio Copy V1.5 from 20. February 2020

Отчёт EAC об извлечении, выполненном 27. июня 2020, 2:26

ATB / Trilogy

Дисковод: ASUS DRW-24D5MT Adapter: 1 ID: 0

Режим чтения : Достоверность
Использование точного потока : Да
Отключение кэша аудио : Да
Использование указателей C2 : Нет

Коррекция смещения при чтении : 6
Способность читать области Lead-in и Lead-out : Нет
Заполнение пропущенных сэмплов тишиной : Да
Удаление блоков с тишиной в начале и конце : Нет
При вычислениях CRC использовались нулевые сэмплы : Да
Интерфейс : Встроенный Win32-интерфейс для Win NT/2000
Обработка зазоров : Добавлено к предыдущему треку

Выходной формат : Пользовательский кодировщик
Выбранный битрейт : 1024 kBit/s
Качество : Высокий
Добавление ID3-тега : Нет
Утилита сжатия : C:\Program Files (x86)\Exact Audio Copy\Flac\flac.exe
Дополнительные параметры : -5 -V -T "ARTIST=%artist%" -T "TITLE=%title%" -T "ALBUM=%albumtitle%" -T "DATE=%year%" -T "TRACKNUMBER=%tracknr%/%numtracks%" -T "GENRE=%genre%" -T "COMMENT=%comment%" %source% -o %dest%

TOC извлечённого CD

Трек | Старт | Длительность | Начальный сектор | Конечный сектор
---------------------------------------------------------------------
1 | 0:00.00 | 3:48.74 | 0 | 17173
2 | 3:48.74 | 4:39.10 | 17174 | 38108
3 | 8:28.09 | 5:38.05 | 38109 | 63463
4 | 14:06.14 | 5:09.39 | 63464 | 86677
5 | 19:15.53 | 3:29.32 | 86678 | 102384
6 | 22:45.10 | 3:46.23 | 102385 | 119357
7 | 26:31.33 | 4:20.25 | 119358 | 138882
8 | 30:51.58 | 5:00.29 | 138883 | 161411
9 | 35:52.12 | 5:36.33 | 161412 | 186644
10 | 41:28.45 | 5:10.48 | 186645 | 209942
11 | 46:39.18 | 5:28.14 | 209943 | 234556
12 | 52:07.32 | 4:13.59 | 234557 | 253590

Трек 1

Имя файла C:\Users\vital\Music\01 Justify.wav

Длина предзазора 0:00:02.00

Пиковый уровень 100.0 %
Скорость извлечения 4.2 X
Качество трека 100.0 %
CRC теста CBAC2747
CRC копии CBAC2747
Точное извлечение (достоверность 2) [EBF6AD60] (AR v1)
Копирование... OK

Трек 2

Имя файла C:\Users\vital\Music\02 Desperate Religion.wav

Пиковый уровень 100.0 %
Скорость извлечения 4.9 X
Качество трека 100.0 %
CRC теста AF0C14A7
CRC копии AF0C14A7
Точное извлечение (достоверность 2) [65A45734] (AR v1)
Копирование... OK

Трек 3

Имя файла C:\Users\vital\Music\03 Renegade.wav

Пиковый уровень 100.0 %
Скорость извлечения 5.6 X
Качество трека 100.0 %
CRC теста 61264432
CRC копии 61264432
Точное извлечение (достоверность 2) [271EA046] (AR v1)
Копирование... OK

Трек 4

Имя файла C:\Users\vital\Music\04 Beautiful Worlds.wav

Пиковый уровень 100.0 %
Скорость извлечения 6.1 X
Качество трека 100.0 %
CRC теста 6E6630C0
CRC копии 6E6630C0
Точное извлечение (достоверность 2) [0509DA30] (AR v1)
Копирование... OK

Трек 5

Имя файла C:\Users\vital\Music\05 Stars Come Out.wav

Пиковый уровень 99.9 %
Скорость извлечения 6.1 X
Качество трека 100.0 %
CRC теста B077DD83
CRC копии B077DD83
Точное извлечение (достоверность 2) [DF4098F2] (AR v1)
Копирование... OK

Трек 6

Имя файла C:\Users\vital\Music\06 Feel Alive (airplay mix).wav

Пиковый уровень 100.0 %
Скорость извлечения 6.5 X
Качество трека 100.0 %
CRC теста D066E6F8
CRC копии D066E6F8
Точное извлечение (достоверность 2) [06E2BEFC] (AR v1)
Копирование... OK

Трек 7

Имя файла C:\Users\vital\Music\07 Made of Glass.wav

Пиковый уровень 100.0 %
Скорость извлечения 6.9 X
Качество трека 100.0 %
CRC теста 572221F6
CRC копии 572221F6
Точное извлечение (достоверность 2) [491663DC] (AR v1)
Копирование... OK

Трек 8

Имя файла C:\Users\vital\Music\08 Alcarda.wav

Пиковый уровень 100.0 %
Скорость извлечения 7.4 X
Качество трека 100.0 %
CRC теста 38793105
CRC копии 38793105
Точное извлечение (достоверность 2) [F8C3C3CA] (AR v1)
Копирование... OK

Трек 9

Имя файла C:\Users\vital\Music\09 These Days.wav

Пиковый уровень 100.0 %
Скорость извлечения 7.9 X
Качество трека 100.0 %
CRC теста 481DEB78
CRC копии 481DEB78
Точное извлечение (достоверность 2) [D840EFD0] (AR v1)
Копирование... OK

Трек 10

Имя файла C:\Users\vital\Music\10 Better Give Up.wav

Пиковый уровень 100.0 %
Скорость извлечения 8.2 X
Качество трека 100.0 %
CRC теста 89329456
CRC копии 89329456
Точное извлечение (достоверность 2) [9CFA0852] (AR v1)
Копирование... OK

Трек 11

Имя файла C:\Users\vital\Music\11 Some Things Just Are the Way They Are.wav

Пиковый уровень 100.0 %
Скорость извлечения 8.6 X
Качество трека 100.0 %
CRC теста A42E348D
CRC копии A42E348D
Точное извлечение (достоверность 2) [485D2646] (AR v1)
Копирование... OK

Трек 12

Имя файла C:\Users\vital\Music\12 The Chosen Ones.wav

Пиковый уровень 100.0 %
Скорость извлечения 8.5 X
Качество трека 100.0 %
CRC теста DEC2ECEA
CRC копии DEC2ECEA
Точное извлечение (достоверность 1) [3A924A1D] (AR v1)
Копирование... OK

Все треки извлечены точно

Ошибок не произошло

Конец отчёта

==== Контрольная сумма отчёта DAD379E072C1A99111B4235B983C08636735A4B085DFC74BEA14F934DD5B57DB ====

 
REM GENRE Electronic
REM DATE 2007
REM DISCID 980D350C
REM COMMENT "ExactAudioCopy v1.5"
PERFORMER "ATB"
TITLE "Trilogy"
REM COMPOSER ""
FILE "01 Justify.wav" WAVE
TRACK 01 AUDIO
TITLE "Justify"
PERFORMER "ATB"
REM COMPOSER ""
INDEX 01 00:00:00
FILE "02 Desperate Religion.wav" WAVE
TRACK 02 AUDIO
TITLE "Desperate Religion"
PERFORMER "ATB"
REM COMPOSER ""
INDEX 01 00:00:00
FILE "03 Renegade.wav" WAVE
TRACK 03 AUDIO
TITLE "Renegade"
PERFORMER "ATB"
REM COMPOSER ""
INDEX 01 00:00:00
FILE "04 Beautiful Worlds.wav" WAVE
TRACK 04 AUDIO
TITLE "Beautiful Worlds"
PERFORMER "ATB"
REM COMPOSER ""
INDEX 01 00:00:00
FILE "05 Stars Come Out.wav" WAVE
TRACK 05 AUDIO
TITLE "Stars Come Out"
PERFORMER "ATB"
REM COMPOSER ""
INDEX 01 00:00:00
FILE "06 Feel Alive (airplay mix).wav" WAVE
TRACK 06 AUDIO
TITLE "Feel Alive (airplay mix)"
PERFORMER "ATB"
REM COMPOSER ""
INDEX 01 00:00:00
FILE "07 Made of Glass.wav" WAVE
TRACK 07 AUDIO
TITLE "Made of Glass"
PERFORMER "ATB"
REM COMPOSER ""
INDEX 01 00:00:00
FILE "08 Alcarda.wav" WAVE
TRACK 08 AUDIO
TITLE "Alcarda"
PERFORMER "ATB"
REM COMPOSER ""
INDEX 01 00:00:00
FILE "09 These Days.wav" WAVE
TRACK 09 AUDIO
TITLE "These Days"
PERFORMER "ATB"
REM COMPOSER ""
INDEX 01 00:00:00
FILE "10 Better Give Up.wav" WAVE
TRACK 10 AUDIO
TITLE "Better Give Up"
PERFORMER "ATB"
REM COMPOSER ""
INDEX 01 00:00:00
FILE "11 Some Things Just Are the Way They Are.wav" WAVE
TRACK 11 AUDIO
TITLE "Some Things Just Are the Way They Are"
PERFORMER "ATB"
REM COMPOSER ""
INDEX 01 00:00:00
FILE "12 The Chosen Ones.wav" WAVE
TRACK 12 AUDIO
TITLE "The Chosen Ones"
PERFORMER "ATB"
REM COMPOSER ""
INDEX 01 00:00:00



Внимание! AdBlock блокирует показ скриншотов, все вопросы к разработчикам )))
Трекер:  [ 28-Июн-2020 08:52 ]

  

Скачать .torrent

Размер .torrent файла 17 KB


Размер: 398 MB
Хэш (hash) релиза: 604f6008e1b83bf869fcabb37b6b747e72fc4964

Еще никто не оставлял запись к записи скачать торрент . Будь первым!

!Обратная связь