Скачать порно через торрент 25-sai no Joshikousei 25-летняя школьница UnionPeer.org бесплатно онлайн HD качество

Скачать новое порно 2015, 2014 новинки через торрент UnionPeer.org

Порно торрент бесплатно ЮнионПир.орг

Статистика раздачи
Размер:  16.64 GB   |    Зарегистрирован:  7 месяцев   |    .torrent скачан:  63 раза   |   

Пиры будут получены при скачивании

 

Скачать 25-sai no Joshikousei / 25-летняя школьница (Oota Hideta, Lyrics, Picante Circus, Suiseisha) (ep. 1-12 of 12) [UNCUT] [cen] [2018, romance, straight, school, BDRemux] [jap / rus / eng] [1080p] через torrent

 
 
Автор Сообщение

Galfimbul

avatar Galfimbul



25-sai no Joshikousei
25歳の女子高生
25-летняя школьница


Год выпуска: 2018
Жанр: romance, straight, school
Серии: ep. 1-12 of 12
Продолжительность: 12*6mn
Цензура: Есть во всех файлах

Озвучка: Японская оригинальная
Субтитры: Русские [Хельши] внешние ASS
Субтитры: Английские [IBN_5100] внешние ASS

Режиссер: Oota Hideta
Автор оригинала: Makana
Студия: Lyrics, Picante Circus, Suiseisha

Описание:
*Based on a shoujo romance smut manga by Makana.

Natori Hana is an earnest, good-natured 25-year-old woman whose cousin refuses to go to high school. Hana takes her cousin''s place and attends the high school. On her first day, though, Hana''s ruse is discovered by her former high school classmate Kanie Akito - who happens to be the high school''s world history teacher.

Source: ANN

Note: The complete edition with explicit scenes was distributed web via Comic Festa Anime Zone. One hour later the normal version was broadcasted on Tokyo MX.

anidb

Доп. информация: Это непорезанная версия с хентайными сценами. БДрип здесь.

Качество видео: BDremux
Разрешение видео: 1080p
Формат видео: MKV
Видео: 1920-1080, 16-9, 23.976 fps, AVC, 30.6-34.8 mbps
Аудио: jpn, WAV, Stereo, 48.0 KHz, 1536 kbps
General
Unique ID : 236254002686449187238119580289667946297 (0xB1BCDDA6BDB9AF415FCA82B09EA3D739)
Complete name : 25-sai_no_joshikousei_01_[UNCUT][BDremux][72A25AF9].mkv
Format : Matroska
Format version : Version 2
File size : 1.38 GiB
Duration : 6 min 8 s
Overall bit rate mode : Variable
Overall bit rate : 32.1 Mb/s
Encoded date : UTC 2018-09-08 13:59:00
Writing application : MakeMKV v1.12.3 win(x64-release)
Writing library : libmakemkv v1.12.3 (1.3.5/1.4.7) win(x64-release)

Video
ID : 1
ID in the original source medium : 4113 (0x1011)
Format : AVC
Format/Info : Advanced Video Codec
Format profile : High@L4.1
Format settings : CABAC / 2 Ref Frames
Format settings, CABAC : Yes
Format settings, RefFrames : 2 frames
Codec ID : V_MPEG4/ISO/AVC
Duration : 6 min 8 s
Bit rate mode : Variable
Bit rate : 30.6 Mb/s
Width : 1 920 pixels
Height : 1 080 pixels
Display aspect ratio : 16:9
Frame rate mode : Constant
Frame rate : 23.976 (24000/1001) FPS
Color space : YUV
Chroma subsampling : 4:2:0
Bit depth : 8 bits
Scan type : Progressive
Bits/(Pixel*Frame) : 0.615
Stream size : 1.31 GiB (95%)
Language : English
Default : No
Forced : No
Original source medium : Blu-ray

Audio
ID : 2
ID in the original source medium : 4352 (0x1100)
Format : PCM
Format settings : Little / Signed
Codec ID : A_PCM/INT/LIT
Duration : 6 min 8 s
Bit rate mode : Constant
Bit rate : 1 536 kb/s
Channel(s) : 2 channels
Sampling rate : 48.0 kHz
Frame rate : 30.002 FPS (1600 SPF)
Bit depth : 16 bits
Stream size : 67.5 MiB (5%)
Title : Stereo
Language : Japanese
Default : Yes
Forced : No


Внимание! AdBlock блокирует показ скриншотов, все вопросы к разработчикам )))
Трекер:  [ 22-Ноя-2020 19:33 ]

  

Скачать .torrent

Размер .torrent файла 88 KB


Размер: 16.64 GB
Хэш (hash) релиза: 92c9185be8e39016ccc5c15ad1380c83e69d70c5

Торренты, похожие на 25-sai no Joshikousei 25-летняя школьница скачать торрент

Форум Название Автор Размер S L Добавлен
Хентай и Манга, Мультфильмы и Комиксы, Рисунки / Hentai & Manga, Cartoons & Comics, Artwork ·%· 25-sai no Joshikousei / 25-летняя школьница (Oota Hideta, Lyrics, Picante Circus, Suiseisha) (ep. 1-12 of 12) [UNCUT] [cen] [2018, romance, straight, school, BDRip] [jap / eng] [1080p] Galfimbul 64085804995.97 GB 0 0 1541798039

00:13

10-Ноя-18

Еще никто не оставлял запись к записи скачать торрент 25-sai no Joshikousei 25-летняя школьница . Будь первым!

!Обратная связь