Скачать через торрент музыку Rockcelona - La Bruja - 2009, FLAC бесплатно без регистрации torrent

Статистика раздачи
Размер:  199 MB   |    Зарегистрирован:  7 лет 8 месяцев   |    .torrent скачан:  30 раз   |   
Раздают:  1  
 

Скачать (Heavy Psych, Hard Rock) Rockcelona - La Bruja - 2009, FLAC (tracks+.cue), lossless через torrent

 
 
Автор Сообщение

Polarnik

avatar Polarnik


Rockcelona / La Bruja

Жанр: Heavy Psych, Hard Rock
Год издания: 2009
Издатель (лейбл): Self Release
Номер по каталогу: PRIV1010CD
Страна: Spain
Аудиокодек: FLAC (*.flac)
Тип рипа: tracks+.cue
Битрейт аудио: lossless
Продолжительность: 00:37:25
Источник (релизер): Ослосеть
Наличие сканов в содержимом раздачи: да
Треклист:
01 La Bruja 6:22
02 Lovespell 3:57
03 Colt 45 4:51
04 Magbalino 3:43
05 ]Hombre Triste 5:11
06 Tierra De Fuego 4:26
07 Buscandote Rock ''N''Roll 5:54
08 Queen, Friend And Dread 3:16
REM GENRE "hard rock"REM DATE 1979REM DISCID 5408C508REM COMMENT "ExactAudioCopy v1.0b3"PERFORMER "Rockcelona"TITLE "La Bruja"FILE "01 La bruja.flac" WAVE TRACK 01 AUDIO TITLE "La bruja" PERFORMER "Rockcelona" INDEX 01 00:00:00FILE "02 Lovespell.flac" WAVE TRACK 02 AUDIO TITLE "Lovespell" PERFORMER "Rockcelona" INDEX 01 00:00:00FILE "03 Colt 45.flac" WAVE TRACK 03 AUDIO TITLE "Colt 45" PERFORMER "Rockcelona" INDEX 01 00:00:00FILE "04 Magbalino.flac" WAVE TRACK 04 AUDIO TITLE "Magbalino" PERFORMER "Rockcelona" INDEX 01 00:00:00FILE "05 Hombre triste.flac" WAVE TRACK 05 AUDIO TITLE "Hombre triste" PERFORMER "Rockcelona" INDEX 01 00:00:00FILE "06 Tierra de fuego.flac" WAVE TRACK 06 AUDIO TITLE "Tierra de fuego" PERFORMER "Rockcelona" INDEX 01 00:00:00FILE "07 Buscandote Rock ''N''Roll.flac" WAVE TRACK 07 AUDIO TITLE "Buscandote Rock ''N''Roll" PERFORMER "Rockcelona" INDEX 01 00:00:00FILE "08 Queen, Friend and Dread.flac" WAVE TRACK 08 AUDIO TITLE "Queen, Friend and Dread" PERFORMER "Rockcelona" INDEX 01 00:00:00
AUDIOCHECKER v2.0 beta (build 457) - by Dester - opdester@freemail.hu~~~~~~~~~~~~~~~~~~~~~~~~~~~~~~~~~~-=== НЕ РЕДАКТИРУЙТЕ ЭТОТ ФАЙЛ! ===-

Путь: ...\Rockcelona - La Bruja (1979)

1 -=- 01 La bruja.flac -=- CDDA (100%)2 -=- 02 Lovespell.flac -=- CDDA (100%)3 -=- 03 Colt 45.flac -=- CDDA (100%)4 -=- 04 Magbalino.flac -=- CDDA (100%)5 -=- 05 Hombre triste.flac -=- CDDA (100%)6 -=- 06 Tierra de fuego.flac -=- CDDA (100%)7 -=- 07 Buscandote Rock ''N''Roll.flac -=- CDDA (100%)8 -=- 08 Queen, Friend and Dread.flac -=- CDDA (100%)

Сводка 100,00% CDDA

258909828
Хард-рок из Испании. Заглавный трек в стиле Теда Ньюджента начинается как размеренный хэви-блюз, но вскоре ускоряется и переходит в заводной риффовый хард. Вторая вещь – фузовая Lovespell – представляет собой тяжелое буги, что-то среднее между ZZ Top и утяжеленным Status Quo, а следующая за ней Colt 45 с продолжительным гитарным соло сделана в духе Kiss. В середине альбома – построенный на сольных проходах грязной гитары инструментал Magbalino и рок-н-ролл Hombre Triste. Если бы в тягучих Tierra de Fuego и Buscandote Rock''n Roll был погуще саунд и помрачнее вокал, получилось бы очень в духе Black Sabbath – риффы очень хороши. Завершает альбом боевик Queen, Friend And Dread (как и Lovespell, исполненная на английском языке с заметным акцентом). Вообще любителям хард-рока альбом вполне можно послушать, хотя большой оригинальностью группа не отличается, вокал, на мой взгляд, не очень удачно подобран, кроме того, для этого стиля испанский язык – не самый лучший вариант.
progmusic.ru
http://www.music-bazaar.com/spanish-music/album/607706/La-Bruja/
Bass – Javier Latorre
Drums – F.M. Aparicio
Guitar – Alberto Balsells, Antonio Cruz
Vocals – Alfredo Valcarcel
Written By – Alberto Balsells, Alfredo Valcárcel (tracks: 01, 07), Jorge Martínez (tracks: 02, 03, 04, 05, 08)


Внимание! AdBlock блокирует показ скриншотов, все вопросы к разработчикам )))
Трекер:  [ 23-Сен-2013 11:21 ]

  

Скачать .torrent

Размер .torrent файла 17 KB


Размер: 199 MB
Хэш (hash) релиза: f731bbe764f1f101ab1cfc1295878b07f2348f7b

Еще никто не оставлял запись к записи скачать торрент Rockcelona - La Bruja - 2009, FLAC . Будь первым!

!Обратная связь