Скачать через торрент музыку бесплатно без регистрации torrent

Статистика раздачи
Размер:  365 MB   |    Зарегистрирован:  7 лет 6 месяцев   |    .torrent скачан:  97 раз   |   
Раздают:  1  
 

Скачать (Rap) [CD] Vnuk - Через неделю - 2013, FLAC (tracks+.cue), lossless через torrent

 
 
Автор Сообщение

Galfimbul

avatar Galfimbul


Vnuk / Через неделю

Жанр: Rap
Носитель: CD
Страна-производитель диска: Россия
Год издания: 2013
Издатель (лейбл): ЦАО Records
Страна: Украина
Аудиокодек: FLAC (*.flac)
Тип рипа: tracks+.cue
Битрейт аудио: lossless
Продолжительность: 00:57:25
Источник (релизер): Собственный диск
Наличие сканов в содержимом раздачи: да
Треклист:
01. Интро
02. Бутылка на дне
03. Через неделю
04. По красоте (при уч. Весъ (Каспийский Груз)
05. Просто
06. Самый ***нутый (реп на ***дженые биты)
07. Инфаркт
08. На понтах
09. Мёртвые голуби (при уч. Mikki Fingaz)
10. Ты знаешь себе цену (при уч. Чинана (Ямыч и Леша Маэстро)
11. По краю неба (реп на ***дженые биты)
12. Пусто
13. Не просто (при уч. Моно Beatsyxa)
14. Летим
15. 92 дня
16. У нас во дворе (при уч. Orlando Magic)
17. Клубника (при уч. Тарик)
18. Не помню (при уч. Эсчевский)
19. В темноте (при уч. Brasko)
Exact Audio Copy V1.0 beta 3 from 29. August 2011

Отчёт EAC об извлечении, выполненном 21. декабря 2013, 18:40

Vnuk / Через неделю

Дисковод: Optiarc DVD RW AD-7280S Adapter: 0 ID: 0

Режим чтения : ДостоверностьИспользование точного потока : ДаОтключение кэша аудио : ДаИспользование указателей C2 : Нет

Коррекция смещения при чтении : 48Способность читать области Lead-in и Lead-out : НетЗаполнение пропущенных сэмплов тишиной : ДаУдаление блоков с тишиной в начале и конце : НетПри вычислениях CRC использовались нулевые сэмплы : ДаИнтерфейс : Встроенный Win32-интерфейс для Win NT/2000Обработка зазоров : Добавлено к предыдущему треку

Выходной формат : Пользовательский кодировщикВыбранный битрейт : 896 kBit/sКачество : ВысокийДобавление ID3-тега : НетУтилита сжатия : C:\Program Files (x86)\FLAC\flac.exeДополнительные параметры : -V -8 -T "Genre=%genre%" -T "Artist=%artist%" -T "Title=%title%" -T "Album=%albumtitle%" -T "Date=%year%" -T "Tracknumber=%tracknr%" -T "Comment=%comment%" %source%

TOC извлечённого CD

Трек | Старт | Длительность | Начальный сектор | Конечный сектор --------------------------------------------------------------------- 1 | 0:00.00 | 0:54.00 | 0 | 4049 2 | 0:54.00 | 1:14.00 | 4050 | 9599 3 | 2:08.00 | 2:20.00 | 9600 | 20099 4 | 4:28.00 | 2:29.68 | 20100 | 31342 5 | 6:57.68 | 3:03.30 | 31343 | 45097 6 | 10:01.23 | 2:42.38 | 45098 | 57285 7 | 12:43.61 | 3:06.00 | 57286 | 71235 8 | 15:49.61 | 3:03.38 | 71236 | 84998 9 | 18:53.24 | 3:01.45 | 84999 | 98618 10 | 21:54.69 | 4:48.00 | 98619 | 120218 11 | 26:42.69 | 2:58.08 | 120219 | 133576 12 | 29:41.02 | 3:16.53 | 133577 | 148329 13 | 32:57.55 | 2:55.68 | 148330 | 161522 14 | 35:53.48 | 3:04.53 | 161523 | 175375 15 | 38:58.26 | 3:26.60 | 175376 | 190885 16 | 42:25.11 | 5:24.30 | 190886 | 215215 17 | 47:49.41 | 3:04.68 | 215216 | 229083 18 | 50:54.34 | 3:23.15 | 229084 | 244323 19 | 54:17.49 | 3:08.00 | 244324 | 258423

Трек 1

Имя файла H:\Vnuk - Через неделю\01 Интро.wav

Длина предзазора 0:00:02.00

Пиковый уровень 97.7 % Скорость извлечения 3.2 X Качество трека 100.0 % CRC теста 4DA31A46 CRC копии 4DA31A46 Трек не обнаружен в базе AccurateRip Копирование... OK

Трек 2

Имя файла H:\Vnuk - Через неделю\02 Бутылка на дне.wav

Пиковый уровень 100.0 % Скорость извлечения 2.8 X Качество трека 99.8 % CRC теста 1E80565A CRC копии 1E80565A Трек не обнаружен в базе AccurateRip Копирование... OK

Трек 3

Имя файла H:\Vnuk - Через неделю\03 Через неделю.wav

Пиковый уровень 97.7 % Скорость извлечения 4.6 X Качество трека 100.0 % CRC теста 96BB09D3 CRC копии 96BB09D3 Трек не обнаружен в базе AccurateRip Копирование... OK

Трек 4

Имя файла H:\Vnuk - Через неделю\04 По красоте (при уч. Весъ (Каспийский Груз)).wav

Пиковый уровень 97.7 % Скорость извлечения 4.9 X Качество трека 100.0 % CRC теста CE2EE24F CRC копии CE2EE24F Трек не обнаружен в базе AccurateRip Копирование... OK

Трек 5

Имя файла H:\Vnuk - Через неделю\05 Просто.wav

Пиковый уровень 97.7 % Скорость извлечения 5.4 X Качество трека 100.0 % CRC теста 6E180AE7 CRC копии 6E180AE7 Трек не обнаружен в базе AccurateRip Копирование... OK

Трек 6

Имя файла H:\Vnuk - Через неделю\06 Самый xxxнутый (реп на xxxдженые биты).wav

Пиковый уровень 97.7 % Скорость извлечения 5.5 X Качество трека 100.0 % CRC теста 98008284 CRC копии 98008284 Трек не обнаружен в базе AccurateRip Копирование... OK

Трек 7

Имя файла H:\Vnuk - Через неделю\07 Инфаркт.wav

Пиковый уровень 84.1 % Скорость извлечения 6.0 X Качество трека 100.0 % CRC теста 7EB6170E CRC копии 7EB6170E Трек не обнаружен в базе AccurateRip Копирование... OK

Трек 8

Имя файла H:\Vnuk - Через неделю\08 На понтах.wav

Пиковый уровень 97.7 % Скорость извлечения 6.1 X Качество трека 100.0 % CRC теста 4D46EFD6 CRC копии 4D46EFD6 Трек не обнаружен в базе AccurateRip Копирование... OK

Трек 9

Имя файла H:\Vnuk - Через неделю\09 Мёртвые голуби (при уч. Mikki Fingaz).wav

Пиковый уровень 97.7 % Скорость извлечения 5.5 X Качество трека 99.9 % CRC теста 162434B4 CRC копии 162434B4 Трек не обнаружен в базе AccurateRip Копирование... OK

Трек 10

Имя файла H:\Vnuk - Через неделю\10 Ты знаешь себе цену (при уч. Чинана (Ямыч и Леша Маэстро).wav

Пиковый уровень 97.7 % Скорость извлечения 7.1 X Качество трека 100.0 % CRC теста 4285DEE0 CRC копии 4285DEE0 Трек не обнаружен в базе AccurateRip Копирование... OK

Трек 11

Имя файла H:\Vnuk - Через неделю\11 По краю неба (реп на xxxдженые биты).wav

Пиковый уровень 97.7 % Скорость извлечения 6.9 X Качество трека 100.0 % CRC теста 60385AB3 CRC копии 60385AB3 Трек не обнаружен в базе AccurateRip Копирование... OK

Трек 12

Имя файла H:\Vnuk - Через неделю\12 Пусто.wav

Пиковый уровень 97.7 % Скорость извлечения 7.0 X Качество трека 100.0 % CRC теста 79B5F381 CRC копии 79B5F381 Трек не обнаружен в базе AccurateRip Копирование... OK

Трек 13

Имя файла H:\Vnuk - Через неделю\13 Не просто (при уч. Моно Beatsyxa).wav

Пиковый уровень 87.4 % Скорость извлечения 7.3 X Качество трека 100.0 % CRC теста 7752FB18 CRC копии 7752FB18 Трек не обнаружен в базе AccurateRip Копирование... OK

Трек 14

Имя файла H:\Vnuk - Через неделю\14 Летим.wav

Пиковый уровень 97.7 % Скорость извлечения 7.6 X Качество трека 100.0 % CRC теста 166F60D5 CRC копии 166F60D5 Трек не обнаружен в базе AccurateRip Копирование... OK

Трек 15

Имя файла H:\Vnuk - Через неделю\15 92 дня.wav

Пиковый уровень 97.7 % Скорость извлечения 7.0 X Качество трека 99.9 % CRC теста 3937FED7 CRC копии 3937FED7 Трек не обнаружен в базе AccurateRip Копирование... OK

Трек 16

Имя файла H:\Vnuk - Через неделю\16 У нас во дворе (при уч. Orlando Magic).wav

Пиковый уровень 97.7 % Скорость извлечения 8.6 X Качество трека 100.0 % CRC теста 150AD08E CRC копии 150AD08E Трек не обнаружен в базе AccurateRip Копирование... OK

Трек 17

Имя файла H:\Vnuk - Через неделю\17 Клубника (при уч. Тарик).wav

Пиковый уровень 97.7 % Скорость извлечения 7.2 X Качество трека 99.9 % CRC теста 5B1511F3 CRC копии 5B1511F3 Трек не обнаружен в базе AccurateRip Копирование... OK

Трек 18

Имя файла H:\Vnuk - Через неделю\18 Не помню (при уч. Эсчевский).wav

Пиковый уровень 97.7 % Скорость извлечения 7.5 X Качество трека 99.9 % CRC теста F7466B7C CRC копии F7466B7C Трек не обнаружен в базе AccurateRip Копирование... OK

Трек 19

Имя файла H:\Vnuk - Через неделю\19 В темноте (при уч. Brasko).wav

Пиковый уровень 97.7 % Скорость извлечения 8.6 X Качество трека 100.0 % CRC теста 6DD76EB8 CRC копии 6DD76EB8 Трек не обнаружен в базе AccurateRip Копирование... OK

Ни одного трека нет в базе AccurateRip

Ошибок не произошло

Конец отчёта

---- CUETools DB Plugin V2.1.3

[CTDB TOCID: 2B8dh6VhAXusZ.Y7.d1.P4acygw-] disk not present in database, Submit result: 2B8dh6VhAXusZ.Y7.d1.P4acygw- has been uploaded

==== Контрольная сумма отчёта BBA86F2EED6D2C56227CAB1C72DAAAA334BCBC091530ABB6E1A34EDF8F7BB874 ====
REM GENRE RapREM DATE 2013REM DISCID FA0D7513REM COMMENT "ExactAudioCopy v1.0b3"PERFORMER "Vnuk"TITLE "Через неделю"FILE "01 Интро.wav" WAVE TRACK 01 AUDIO TITLE "Интро" PERFORMER "Vnuk" INDEX 01 00:00:00FILE "02 Бутылка на дне.wav" WAVE TRACK 02 AUDIO TITLE "Бутылка на дне" PERFORMER "Vnuk" INDEX 01 00:00:00FILE "03 Через неделю.wav" WAVE TRACK 03 AUDIO TITLE "Через неделю" PERFORMER "Vnuk" INDEX 01 00:00:00FILE "04 По красоте (при уч. Весъ (Каспийский Груз)).wav" WAVE TRACK 04 AUDIO TITLE "По красоте (при уч. Весъ (Каспийский Груз))" PERFORMER "Vnuk" INDEX 01 00:00:00FILE "05 Просто.wav" WAVE TRACK 05 AUDIO TITLE "Просто" PERFORMER "Vnuk" INDEX 01 00:00:00FILE "06 Самый xxxнутый (реп на xxxдженые биты).wav" WAVE TRACK 06 AUDIO TITLE "Самый ***нутый (реп на ***дженые биты)" PERFORMER "Vnuk" INDEX 01 00:00:00FILE "07 Инфаркт.wav" WAVE TRACK 07 AUDIO TITLE "Инфаркт" PERFORMER "Vnuk" INDEX 01 00:00:00FILE "08 На понтах.wav" WAVE TRACK 08 AUDIO TITLE "На понтах" PERFORMER "Vnuk" INDEX 01 00:00:00FILE "09 Мёртвые голуби (при уч. Mikki Fingaz).wav" WAVE TRACK 09 AUDIO TITLE "Мёртвые голуби (при уч. Mikki Fingaz)" PERFORMER "Vnuk" INDEX 01 00:00:00FILE "10 Ты знаешь себе цену (при уч. Чинана (Ямыч и Леша Маэстро).wav" WAVE TRACK 10 AUDIO TITLE "Ты знаешь себе цену (при уч. Чинана (Ямыч и Леша Маэстро)" PERFORMER "Vnuk" INDEX 01 00:00:00FILE "11 По краю неба (реп на xxxдженые биты).wav" WAVE TRACK 11 AUDIO TITLE "По краю неба (реп на ***дженые биты)" PERFORMER "Vnuk" INDEX 01 00:00:00FILE "12 Пусто.wav" WAVE TRACK 12 AUDIO TITLE "Пусто" PERFORMER "Vnuk" INDEX 01 00:00:00FILE "13 Не просто (при уч. Моно Beatsyxa).wav" WAVE TRACK 13 AUDIO TITLE "Не просто (при уч. Моно Beatsyxa)" PERFORMER "Vnuk" INDEX 01 00:00:00FILE "14 Летим.wav" WAVE TRACK 14 AUDIO TITLE "Летим" PERFORMER "Vnuk" INDEX 01 00:00:00FILE "15 92 дня.wav" WAVE TRACK 15 AUDIO TITLE "92 дня" PERFORMER "Vnuk" INDEX 01 00:00:00FILE "16 У нас во дворе (при уч. Orlando Magic).wav" WAVE TRACK 16 AUDIO TITLE "У нас во дворе (при уч. Orlando Magic)" PERFORMER "Vnuk" INDEX 01 00:00:00FILE "17 Клубника (при уч. Тарик).wav" WAVE TRACK 17 AUDIO TITLE "Клубника (при уч. Тарик)" PERFORMER "Vnuk" INDEX 01 00:00:00FILE "18 Не помню (при уч. Эсчевский).wav" WAVE TRACK 18 AUDIO TITLE "Не помню (при уч. Эсчевский)" PERFORMER "Vnuk" INDEX 01 00:00:00FILE "19 В темноте (при уч. Brasko).wav" WAVE TRACK 19 AUDIO TITLE "В темноте (при уч. Brasko)" PERFORMER "Vnuk" INDEX 01 00:00:00


Внимание! AdBlock блокирует показ скриншотов, все вопросы к разработчикам )))
Трекер:  [ 21-Дек-2013 18:16 ]

  

Скачать .torrent

Размер .torrent файла 16 KB


Размер: 365 MB
Хэш (hash) релиза: 177ffeeffb825f8122739f2fda1eca116988532d

Еще никто не оставлял запись к записи скачать торрент . Будь первым!

!Обратная связь