Скачать через торрент [DOC] Мусор Trashed Фильм бесплатно в хорошем качестве torrent

Скачивайте на UnionPeer.org фильмы через торрент без регистрации. Новинки кино в хорошем качестве через торрент. На UnionPeer.org можно скачать через торрент фильмы 2014 и 2015 годов. Самые новые фильмы.

Скачать торрент [DOC] Мусор Trashed бесплатно через .torrent фильм мультфильм сериал

Статистика раздачи
Размер:  516 MB   |    Зарегистрирован:  7 лет 6 месяцев   |    .torrent скачан:  70 раз   |   
Раздают:  1  
 

Скачать [DOC] Мусор / Trashed (Кандида Брэди / Candida Brady) [2012 г., документальный, DVDRip] VO (Лицензия) через torrent

 
 
Автор Сообщение

Galfimbul

avatar Galfimbul


Мусор
«If you think waste is someone else''s problem, think again»
Оригинальное Название: Trashed
Год Выпуска: 2012 г.
Cтрана: США
Жанр: документальный
Продолжительность: 01:33:24
Перевод: Профессиональный (одноголосый, закадровый) [Лицензия]
Режиссер: Кандида Брэди

В ролях: Джереми Айронс
Описание:
Вместе с Джереми Айронсом создатели этого документального фильма изучают опасность загрязнения земли, воздуха и воды отходами и влияние этого загрязнения на пищевую цепочку и окружающую среду. Лента раскрывает удивительные факты, касающиеся серьезной угрозы нашему здоровью. Она построена в форме глобального разговора между Джереми Айронсом и жителями нашей планеты — от Исландии до Индонезии. Среди собеседников — ученые, политики и простые люди, чье здоровье и образ жизни пострадали от проблемы загрязнения окружающей среды отходами. С точки зрения визуального и эмоционального восприятия лента, связывающая истории из жизни и политические «тревожные звонки», представляется одновременно ужасной и прекрасной. Но завершается она посланием надежды. Фильм показывает, что опасности можно избежать с помощью развития долгосрочных проектов, которые помогут создать больше рабочих мест в области переработки отходов.


Источник: DVD5
Качество: DVDRip
Формат: MP4
Видео кодек: H.264
Аудио кодек: AAC
Видео: MPEG-4 AVC Video (H.264) / 480х272 / 640 kbps / 25.000 fps / 16:9 / Main Profile 3.0
Аудио: AAC, 2 channels, 48 kHz, 128 kbps
General
Complete name                       : D:\PSP\Раздачи\Фильмы\Мусор.2012.DVDRip.mp4
Format                              : MPEG-4
Format profile                      : Base Media
Codec ID                            : isom
File size                           : 516 MiB
Duration                            : 1h 33mn
Overall bit rate mode               : Variable
Overall bit rate                    : 772 Kbps
Encoded date                        : UTC 2013-12-17 13:22:19
Tagged date                         : UTC 2013-12-17 13:22:19

Video
ID                                  : 1
Format                              : AVC
Format/Info                         : Advanced Video Codec
Format profile                      : Main@L3.0
Format settings, CABAC              : Yes
Format settings, ReFrames           : 3 frames
Codec ID                            : avc1
Codec ID/Info                       : Advanced Video Coding
Duration                            : 1h 33mn
Bit rate                            : 640 Kbps
Maximum bit rate                    : 5 750 Kbps
Width                               : 480 pixels
Height                              : 272 pixels
Display aspect ratio                : 16:9
Frame rate mode                     : Constant
Frame rate                          : 25.000 fps
Color space                         : YUV
Chroma subsampling                  : 4:2:0
Bit depth                           : 8 bits
Scan type                           : Progressive
Bits/(Pixel*Frame)                  : 0.196
Stream size                         : 428 MiB (83%)
Writing library                     : x264 core 130 r2273 b3065e6
Encoding settings                   : cabac=1 / ref=3 / deblock=1:-2:-1 / analyse=0x1:0x131 / me=umh / subme=10 / psy=1 / psy_rd=1.00:0.20 / mixed_ref=1 / me_range=16 / chroma_me=1 / trellis=2 / 8x8dct=0 / cqm=0 / deadzone=21,11 / fast_pskip=0 / chroma_qp_offset=-3 / threads=12 / lookahead_threads=1 / sliced_threads=0 / nr=0 / decimate=0 / interlaced=0 / bluray_compat=0 / constrained_intra=0 / bframes=3 / b_pyramid=0 / b_adapt=2 / b_bias=0 / direct=3 / weightb=1 / open_gop=0 / weightp=2 / keyint=250 / keyint_min=25 / scenecut=40 / intra_refresh=0 / rc_lookahead=60 / rc=2pass / mbtree=1 / bitrate=640 / ratetol=1.0 / qcomp=0.60 / qpmin=0 / qpmax=69 / qpstep=4 / cplxblur=20.0 / qblur=0.5 / ip_ratio=1.40 / aq=1:1.00
Encoded date                        : UTC 2013-12-17 13:22:19
Tagged date                         : UTC 2013-12-17 13:23:01

Audio
ID                                  : 2
Format                              : AAC
Format/Info                         : Advanced Audio Codec
Format profile                      : LC
Codec ID                            : 40
Duration                            : 1h 33mn
Bit rate mode                       : Variable
Bit rate                            : 128 Kbps
Maximum bit rate                    : 149 Kbps
Channel(s)                          : 2 channels
Channel positions                   : Front: L R
Sampling rate                       : 48.0 KHz
Compression mode                    : Lossy
Delay relative to video             : 80ms
Stream size                         : 85.5 MiB (17%)
Encoded date                        : UTC 2013-12-17 13:22:57
Tagged date                         : UTC 2013-12-17 13:23:01



Если вы скачали данный релиз и хотите выложить его на другом ресурсе -
пожалуйста, указывайте первоисточник
- R.G. Video Games World

Внимание! AdBlock блокирует показ скриншотов, все вопросы к разработчикам )))
Трекер:  [ 22-Дек-2013 17:07 ]

  

Скачать .torrent

Размер .torrent файла 10 KB


Размер: 516 MB
Хэш (hash) релиза: 212acde880adcdd69751bfb30e09a7e4660c365a
Подписка на обновления:

Еще никто не оставлял запись к записи скачать торрент [DOC] Мусор Trashed . Будь первым!

!Обратная связь