ea ut f th Furn torrent

UnionPeer.org . . UnionPeer.org 2014 2015 . .

ea ut f th Furn .torrent

535 MB   |    :  7 5    |    .torrent :  77    |   
1  
   
 

Galfimbul

avatar Galfimbul



Sometimes your battles choose you
: Out of the Furnace
: 2013 .
C: ,
: , ,
: 01:56:08
: (, ) [ "Paradox"]
:

: , , , , , , , , ,
:
2008 . , , , , , -, . , , - .


: DVDScr 720p
: DVDScr
: MP4
: H.264
: AAC
: MPEG-4 AVC Video (H.264) / 480x208 / 512 kbps / 23.976 fps / 40:17 / Main Profile 3.0
: AAC, 2 channels, 48 kHz, 128 kbps
General
Complete name : D:\PSP\\\..2013.DVDScr.mp4
Format : MPEG-4
Format profile : Base Media
Codec ID : isom
File size : 535 MiB
Duration : 1h 56mn
Overall bit rate mode : Variable
Overall bit rate : 643 Kbps
Encoded date : UTC 2013-12-24 14:28:05
Tagged date : UTC 2013-12-24 14:28:05

Video
ID : 1
Format : AVC
Format/Info : Advanced Video Codec
Format profile : Main@L3.0
Format settings, CABAC : Yes
Format settings, ReFrames : 3 frames
Codec ID : avc1
Codec ID/Info : Advanced Video Coding
Duration : 1h 56mn
Bit rate : 512 Kbps
Maximum bit rate : 3 319 Kbps
Width : 480 pixels
Height : 208 pixels
Display aspect ratio : 2.35:1
Frame rate mode : Constant
Frame rate : 23.976 fps
Color space : YUV
Chroma subsampling : 4:2:0
Bit depth : 8 bits
Scan type : Progressive
Bits/(Pixel*Frame) : 0.214
Stream size : 425 MiB (80%)
Writing library : x264 core 130 r2273 b3065e6
Encoding settings : cabac=1 / ref=3 / deblock=1:-2:-1 / analyse=0x1:0x131 / me=umh / subme=10 / psy=1 / psy_rd=1.00:0.20 / mixed_ref=1 / me_range=16 / chroma_me=1 / trellis=2 / 8x8dct=0 / cqm=0 / deadzone=21,11 / fast_pskip=0 / chroma_qp_offset=-3 / threads=12 / lookahead_threads=1 / sliced_threads=0 / nr=0 / decimate=0 / interlaced=0 / bluray_compat=0 / constrained_intra=0 / bframes=3 / b_pyramid=0 / b_adapt=2 / b_bias=0 / direct=3 / weightb=1 / open_gop=0 / weightp=2 / keyint=250 / keyint_min=23 / scenecut=40 / intra_refresh=0 / rc_lookahead=60 / rc=2pass / mbtree=1 / bitrate=512 / ratetol=1.0 / qcomp=0.60 / qpmin=0 / qpmax=69 / qpstep=4 / cplxblur=20.0 / qblur=0.5 / ip_ratio=1.40 / aq=1:1.00
Encoded date : UTC 2013-12-24 14:28:05
Tagged date : UTC 2013-12-24 14:28:23

Audio
ID : 2
Format : AAC
Format/Info : Advanced Audio Codec
Format profile : LC
Codec ID : 40
Duration : 1h 56mn
Bit rate mode : Variable
Bit rate : 128 Kbps
Maximum bit rate : 179 Kbps
Channel(s) : 2 channels
Channel positions : Front: L R
Sampling rate : 48.0 KHz
Compression mode : Lossy
Delay relative to video : 83ms
Stream size : 106 MiB (20%)
Encoded date : UTC 2013-12-24 14:28:20
Tagged date : UTC 2013-12-24 14:28:23



-
,
- R.G. Video Games World

! AdBlock , )))
 ·  , , FAQ-
:  [ 24--2013 18:12 ]

  

.torrent

.torrent 11 KB


: 535 MB
(hash) : c7113cd6af8e4bb2de2aa4868ff0b311b27b6ead
:
··
...

ea ut f th Furn . !

!