Скачать через торрент Л Фильм бесплатно в хорошем качестве torrent

Скачивайте на UnionPeer.org фильмы через торрент без регистрации. Новинки кино в хорошем качестве через торрент. На UnionPeer.org можно скачать через торрент фильмы 2014 и 2015 годов. Самые новые фильмы.

Скачать торрент Л бесплатно через .torrent фильм мультфильм сериал

Статистика раздачи
Размер:  1.37 GB   |    Зарегистрирован:  9 лет 2 месяца   |    .torrent скачан:  105 раз   |   
Раздают:  1  
 

Скачать З/Л/О: Новый вирус / V/H/S: Viral (Джастин Бенсон / Justin Benson, Грегг Бишоп / Gregg Bishop) [2014, США, Ужасы, триллер, WEB-DLRip] Dub через torrent

 
 
Автор Сообщение

Galfimbul

avatar Galfimbul




З/Л/О: Новый вирус / V/H/S: Viral

«Mayhem Goes Viral»
Страна: США
Жанр: ужасы, триллер
Год выпуска: 2014
Продолжительность: 01:21:10
Перевод: Профессиональный (дублированный) Лицензия
Cубтитры: нет
Режиссер: Джастин Бенсон / Justin Benson, Грегг Бишоп / Gregg Bishop

В ролях: Эмми Арго, Аманда Бэйкер, Рим Басма, Ник Бланко, Дэн Кодилл, Стивен Кодилл, Грейсон Чадвик, Линдсэй Клифт, Джавед Эль Берни, Лора Эшманн

Описание: Действие следует за группой подростков, которые неожиданно для себя становятся интернет-сенсациями. Сегменты фильма – это история невменяемого иллюзиониста, который получает магический предмет с большими полномочиями; рассказ о самодельной машине, которая открывает путь в параллельный мир; сюжет о подростках, невольно ставших жертвами мексиканского смертельно опасного культового ритуала, а также история зловещей теневой организации, которая следит за серийным убийцей.
|Сэмпл|IMDB|КиноПоиск|
Качество видео: WEB-DLRip
Формат видео: AVI

Видео: 720x400 (1.80:1), 23.976 fps, XviD build 50 ~2016 kbps avg, 0.29 bit/pixel
Аудио: 48 kHz, AC3 Dolby Digital, 3/2 (L,C,R,l,r) + LFE ch, ~384 kbps
Общее
Полное имя : F:\BD torrent\mytorrentsup\!Zl0.3.2014.D.WEB-DLRip.1400MB.avi
Формат : AVI
Формат/Информация : Audio Video Interleave
Размер файла : 1,37 Гбайт
Продолжительность : 1 ч. 21 м.
Общий поток : 2410 Кбит/сек
Программа кодирования : VirtualDubMod 1.5.10.2 (build 2540/release)
Библиотека кодирования : VirtualDubMod build 2540/release

Видео
Идентификатор : 0
Формат : MPEG-4 Visual
Профиль формата : Advanced Simple@L5
Параметр BVOP формата : 2
Параметр QPel формата : Нет
Параметр GMC формата : Без точки перехода
Параметр матрицы формата : Default (MPEG)
Идентификатор кодека : XVID
Идентификатор кодека/Подсказка : XviD
Продолжительность : 1 ч. 21 м.
Битрейт : 2017 Кбит/сек
Ширина : 720 пикселей
Высота : 400 пикселей
Соотношение сторон : 16:9
Частота кадров : 23,976 кадра/сек
Цветовое пространство : YUV
Субдискретизация насыщенности : 4:2:0
Битовая глубина : 8 бит
Тип развёртки : Прогрессивная
Метод сжатия : С потерями
Бит/(Пиксели*Кадры) : 0.292
Размер потока : 1,14 Гбайт (84%)
Библиотека кодирования : XviD 1.2.1 (UTC 2008-12-04)

Аудио
Идентификатор : 1
Формат : AC-3
Формат/Информация : Audio Coding 3
Расширение режима : CM (complete main)
Параметр Endianness формата : Big
Идентификатор кодека : 2000
Продолжительность : 1 ч. 21 м.
Вид битрейта : Постоянный
Битрейт : 384 Кбит/сек
Каналы : 6 каналов
Расположение каналов : Front: L C R, Side: L R, LFE
Частота : 48,0 КГц
Битовая глубина : 16 бит
Метод сжатия : С потерями
Размер потока : 223 Мбайт (16%)
Выравнивание : Разделение по промежуткам
Продолжительность промежутка : 42 мс. (1,00 видеокадр)
Время предзагрузки промежутка : 500 мс.


Внимание! AdBlock блокирует показ скриншотов, все вопросы к разработчикам )))
Трекер:  [ 08-Дек-2014 10:30 ]

  

Скачать .torrent

Размер .torrent файла 14 KB


Размер: 1.37 GB
Хэш (hash) релиза: 56abb319280bc8c0af8e7155539d570ed9397ac2
Подписка на обновления:

Торренты, похожие на Л скачать торрент

Форум Название Автор Размер S L Добавлен
Зарубежные фильмы 2016-2019 (Новинки зарубежного кино) ·%· З/Л/О: Новый вирус / V/H/S: Viral (2014) BDRip 720p | Лицензия Galfimbul 49286741374.59 GB 0 0 1548237009

12:50

23-Янв-19

Зарубежные фильмы до 2016 ·· З/Л/О: Новый вирус / V/H/S: Viral (Джастин Бенсон / Justin Benson, Грегг Бишоп / Gregg Bishop, Тодд Линкольн / Todd Lincoln) [2014, США, Ужасы, триллер, HDRip] Dub (iTunes) Galfimbul 788914176752 MB 0 0 1471807521

22:25

21-Авг-16

Зарубежные фильмы до 2016 ·· З/Л/О: Новый вирус / V/H/S: Viral (Джастин Бенсон / Justin Benson, Грегг Бишоп / Gregg Bishop) [2014, США, Ужасы, триллер, HDRip ] Dub Galfimbul 15703797761.46 GB 0 0 1421594521

18:22

18-Янв-15

Зарубежные фильмы до 2016 ·· З/Л/О: Новый вирус / V/H/S: Viral (Джастин Бенсон / Justin Benson, Грегг Бишоп / Gregg Bishop) [2014, США, Ужасы, триллер, BDRip 720p] iTunes Galfimbul 49286219564.59 GB 0 0 1418064304

21:45

8-Дек-14

Зарубежные фильмы до 2016 ·· З/Л/О: Новый вирус / V/H/S: Viral (Джастин Бенсон / Justin Benson, Грегг Бишоп / Gregg Bishop, Тодд Линкольн / Todd Lincoln) [2014, США, Ужасы, триллер, WEB-DL 720p] [Чистый звук] Galfimbul 28515741552.66 GB 0 0 1416899355

10:09

25-Ноя-14

Зарубежные фильмы до 2016 ·· З/Л/О: Новый вирус / V/H/S: Viral (Джастин Бенсон / Justin Benson, Грегг Бишоп / Gregg Bishop, Тодд Линкольн / Todd Lincoln) [2014, США, Ужасы, триллер, WEB-DLRip] [Чистый звук] Galfimbul 15738368001.47 GB 0 0 1416897539

09:38

25-Ноя-14

Зарубежные фильмы до 2016 ·· З/Л/О: Новый вирус / V/H/S: Viral (Джастин Бенсон / Justin Benson, Грегг Бишоп / Gregg Bishop, Тодд Линкольн / Todd Lincoln) [2014, США, Ужасы, триллер, WEB-DLRip] VO (datynet) Galfimbul 783151104747 MB 0 0 1414472711

08:05

28-Окт-14

Зарубежные фильмы до 2016 ·· З/Л/О: Новый вирус / V/H/S: Viral (Джастин Бенсон, Грегг Бишоп, Тодд Линкольн) [2014, ужасы, триллер, WEB-DL 720p] Galfimbul 28515731292.66 GB 0 0 1414438686

22:38

27-Окт-14

Зарубежные фильмы до 2016 ·· З/Л/О: Новый вирус / V/H/S: Viral (Джастин Бенсон, Грегг Бишоп, Тодд Линкольн) [2014, ужасы, триллер, WEB-DLRip] Galfimbul 14772080641.38 GB 0 0 1414422285

18:04

27-Окт-14

Еще никто не оставлял запись к записи скачать торрент Л . Будь первым!

!Обратная связь