Скачать через торрент Л Фильм бесплатно в хорошем качестве torrent

Скачивайте на UnionPeer.org фильмы через торрент без регистрации. Новинки кино в хорошем качестве через торрент. На UnionPeer.org можно скачать через торрент фильмы 2014 и 2015 годов. Самые новые фильмы.

Скачать торрент Л бесплатно через .torrent фильм мультфильм сериал

Статистика раздачи
Размер:  752 MB   |    Зарегистрирован:  7 лет 6 месяцев   |    .torrent скачан:  32 раза   |   
Раздают:  1  
   
 
Автор Сообщение

Galfimbul

avatar Galfimbul


З/Л/О: Новый вирус / V/H/S: Viral

Страна: США
Жанр: Ужасы, триллер
Год выпуска: 2014
Продолжительность: 01:21:10

Перевод: Профессиональный (дублированный) iTunes
Cубтитры: нет
Режиссер: Джастин Бенсон / Justin Benson, Грегг Бишоп / Gregg Bishop, Тодд Линкольн / Todd Lincoln

В ролях: Эмми Арго, Аманда Бэйкер, Рим Басма, Ник Бланко, Дэн Кодилл, Стивен Кодилл, Грейсон Чадвик, Линдсэй Клифт, Джавед Эль Берни, Лора Эшманн...

Описание: История о подростках, одержимых желанием прославиться, которые невольно становятся звездами очередной интернет-сенсации…

Сэмпл: http://multi-up.com/1114045

Качество видео: HDRip
Формат видео: AVI

Видео: 624x352 (1.77:1), 23.976 fps, XviD build 73 ~1160 kbps avg, 0.22 bit/pixel
Аудио: 48 kHz, MPEG Layer 3, 2 ch, ~128.00 kbps avg
General
Complete name : E:\Zona Downloads\v.h.s.viral.2014.HDRip..avi
Format : AVI
Format/Info : Audio Video Interleave
File size : 752 MiB
Duration : 1h 21mn
Overall bit rate : 1 298 Kbps
Writing application : VirtualDubMod 1.5.10.3 | www.virtualdub-fr.org || (build 2550/release)
Writing library : VirtualDubMod build 2550/release

Video
ID : 0
Format : MPEG-4 Visual
Format profile : Advanced Simple@L5
Format settings, BVOP : 1
Format settings, QPel : No
Format settings, GMC : No warppoints
Format settings, Matrix : Custom
Codec ID : XVID
Codec ID/Hint : XviD
Duration : 1h 21mn
Bit rate : 1 161 Kbps
Width : 624 pixels
Height : 352 pixels
Display aspect ratio : 16:9
Frame rate : 23.976 fps
Color space : YUV
Chroma subsampling : 4:2:0
Bit depth : 8 bits
Scan type : Progressive
Compression mode : Lossy
Bits/(Pixel*Frame) : 0.220
Stream size : 673 MiB (89%)
Writing library : XviD 73

Audio
ID : 1
Format : MPEG Audio
Format version : Version 1
Format profile : Layer 3
Codec ID : 55
Codec ID/Hint : MP3
Duration : 1h 21mn
Bit rate mode : Constant
Bit rate : 128 Kbps
Channel(s) : 2 channels
Sampling rate : 48.0 KHz
Compression mode : Lossy
Stream size : 74.2 MiB (10%)
Alignment : Aligned on interleaves
Interleave, duration : 42 ms (1.00 video frame)
Interleave, preload duration : 504 ms
Writing library : LAME3.99r
Encoding settings : -m s -V 4 -q 2 -lowpass 17 -b 128


Внимание! AdBlock блокирует показ скриншотов, все вопросы к разработчикам )))
Трекер:  [ 21-Авг-2016 21:30 ]

  

Скачать .torrent

Размер .torrent файла 15 KB


Размер: 752 MB
Хэш (hash) релиза: 64d8b73aafb7d75231eb3c7842c465f41ecc2e2a
Подписка на обновления:

Торренты, похожие на Л скачать торрент

Форум Название Автор Размер S L Добавлен
Зарубежные фильмы 2016-2019 (Новинки зарубежного кино) ·%· З/Л/О: Новый вирус / V/H/S: Viral (2014) BDRip 720p | Лицензия Galfimbul 49286741374.59 GB 0 0 1548237009

12:50

23-Янв-19

Зарубежные фильмы до 2016 ·· З/Л/О: Новый вирус / V/H/S: Viral (Джастин Бенсон / Justin Benson, Грегг Бишоп / Gregg Bishop) [2014, США, Ужасы, триллер, HDRip ] Dub Galfimbul 15703797761.46 GB 0 0 1421594521

18:22

18-Янв-15

Зарубежные фильмы до 2016 ·· З/Л/О: Новый вирус / V/H/S: Viral (Джастин Бенсон / Justin Benson, Грегг Бишоп / Gregg Bishop) [2014, США, Ужасы, триллер, BDRip 720p] iTunes Galfimbul 49286219564.59 GB 0 0 1418064304

21:45

8-Дек-14

Зарубежные фильмы до 2016 ·· З/Л/О: Новый вирус / V/H/S: Viral (Джастин Бенсон / Justin Benson, Грегг Бишоп / Gregg Bishop) [2014, США, Ужасы, триллер, WEB-DLRip] Dub Galfimbul 14673612801.37 GB 0 0 1418024270

10:37

8-Дек-14

Зарубежные фильмы до 2016 ·· З/Л/О: Новый вирус / V/H/S: Viral (Джастин Бенсон / Justin Benson, Грегг Бишоп / Gregg Bishop, Тодд Линкольн / Todd Lincoln) [2014, США, Ужасы, триллер, WEB-DL 720p] [Чистый звук] Galfimbul 28515741552.66 GB 0 0 1416899355

10:09

25-Ноя-14

Зарубежные фильмы до 2016 ·· З/Л/О: Новый вирус / V/H/S: Viral (Джастин Бенсон / Justin Benson, Грегг Бишоп / Gregg Bishop, Тодд Линкольн / Todd Lincoln) [2014, США, Ужасы, триллер, WEB-DLRip] [Чистый звук] Galfimbul 15738368001.47 GB 0 0 1416897539

09:38

25-Ноя-14

Зарубежные фильмы до 2016 ·· З/Л/О: Новый вирус / V/H/S: Viral (Джастин Бенсон / Justin Benson, Грегг Бишоп / Gregg Bishop, Тодд Линкольн / Todd Lincoln) [2014, США, Ужасы, триллер, WEB-DLRip] VO (datynet) Galfimbul 783151104747 MB 0 0 1414472711

08:05

28-Окт-14

Зарубежные фильмы до 2016 ·· З/Л/О: Новый вирус / V/H/S: Viral (Джастин Бенсон, Грегг Бишоп, Тодд Линкольн) [2014, ужасы, триллер, WEB-DL 720p] Galfimbul 28515731292.66 GB 0 0 1414438686

22:38

27-Окт-14

Зарубежные фильмы до 2016 ·· З/Л/О: Новый вирус / V/H/S: Viral (Джастин Бенсон, Грегг Бишоп, Тодд Линкольн) [2014, ужасы, триллер, WEB-DLRip] Galfimbul 14772080641.38 GB 0 0 1414422285

18:04

27-Окт-14

Еще никто не оставлял запись к записи скачать торрент Л . Будь первым!

!Обратная связь