Скачать через торрент Спасти или уничтожить Серии: 1-4 из 4 Фильм бесплатно в хорошем качестве torrent

Скачивайте на UnionPeer.org фильмы через торрент без регистрации. Новинки кино в хорошем качестве через торрент. На UnionPeer.org можно скачать через торрент фильмы 2014 и 2015 годов. Самые новые фильмы.

Скачать торрент Спасти или уничтожить Серии: 1-4 из 4 бесплатно через .torrent фильм мультфильм сериал

Статистика раздачи
Размер:  2.54 GB   |    Зарегистрирован:  3 года 4 месяца   |    .torrent скачан:  183 раза   |   
Раздают:  1  
   
загрузка...
 
Автор Сообщение

Galfimbul

avatar Galfimbul


Спасти или уничтожить

Производство: "PRO.TV"
Год выпуска: 2013
Жанр: военный фильм, приключения
Продолжительность: 50 мин.
Cубтитры: нет

Режиссёр: Владимир Фатьянов
В ролях: Никита Зверев, Анна Снаткина, Борис Полунин, Матвей Шкуратов, Евгений Пацино, Вадим Колганов, Евгений Бахар, Игорь Злотников, Виктор Бабак, Антон Старовойтов, Кирилл Захаров, Юрий Вутто, Сергей Новицкий, Сергей Широчин, Анатолий Гурьев

Описание: Дело начинается в 1941-м году. По поручению Сталина создается специальная группа разведчиков особой секретности. Участники группы - хорошо тренированные военнослужащие, которые не знают страха, преданные Родине и высшему руководству. Их первое задание подготовил сам Сталин. По его приказу группа должна пробраться в тыл врага и разыскать Якова Джугашвили, который, вероятно, находился в плену. Как оказалось позже Яков - старший сын Сталина. Перед членами группы стоит нелегкая задача. Отказ или неповиновение карается смертью. Никто точно не знает, жив ли Яков, или нет. Возникает множество вопросов по ходу операции...
Доп. информация: Релиз группа
<a href="...9&nm=Спасти+или+уничтожить" class="postLink">Все раздачи сериала</a>
Сэмпл

Качество: WEBRip
Формат: AVI
Видео кодек: XviD
Аудио кодек: AC3
Видео: 720x400 (1.80:1), 25 fps, XviD build 73 ~1548 kbps avg, 0.22 bit/pixel
Аудио: 48 kHz, AC3 Dolby Digital, 2/0 (L,R) ch, ~192.00 kbps avg
General
Complete name : Y:\раздачи\Spasti.ili.ynistozit..2013.WEB-DLRip.RG.Russkie.serialy.&.Files-x\03.Spasti.ili.ynistozit..2013.WEB-DLRip.RG.Russkie.serialy.&.Files-x.avi
Format : AVI
Format/Info : Audio Video Interleave
File size : 650 MiB
Duration : 50mn 46s
Overall bit rate : 1 789 Kbps
Writing application : VirtualDubMod 1.5.10.3 | www.virtualdub-fr.org || (build 2550/release)
Writing library : VirtualDubMod build 2550/release

Video
ID : 0
Format : MPEG-4 Visual
Format profile : Advanced Simple@L5
Format settings, BVOP : 1
Format settings, QPel : No
Format settings, GMC : No warppoints
Format settings, Matrix : Custom
Codec ID : XVID
Codec ID/Hint : XviD
Duration : 50mn 46s
Bit rate : 1 587 Kbps
Width : 720 pixels
Height : 400 pixels
Display aspect ratio : 16:9
Frame rate : 25.000 fps
Color space : YUV
Chroma subsampling : 4:2:0
Bit depth : 8 bits
Scan type : Progressive
Compression mode : Lossy
Bits/(Pixel*Frame) : 0.220
Stream size : 576 MiB (89%)
Writing library : XviD 73

Audio
ID : 1
Format : AC-3
Format/Info : Audio Coding 3
Mode extension : CM (complete main)
Format settings, Endianness : Big
Codec ID : 2000
Duration : 50mn 46s
Bit rate mode : Constant
Bit rate : 192 Kbps
Channel(s) : 2 channels
Channel positions : Front: L R
Sampling rate : 48.0 KHz
Compression mode : Lossy
Stream size : 69.7 MiB (11%)
Alignment : Split accross interleaves
Interleave, duration : 40 ms (1.00 video frame)
Interleave, preload duratio : 500 ms
Сравнение с сатрипом

Трекер:  [ 14-Сен-2015 05:00 ]

  

Скачать .torrent

Размер .torrent файла 13 KB


Размер: 2.54 GB
Хэш (hash) релиза: 88b6de0a4409086f94d0b2b08a1308449abd9809
Подписка на обновления:

Еще никто не оставлял запись к записи скачать торрент Спасти или уничтожить Серии: 1-4 из 4 . Будь первым!

!Обратная связь