Скачать через торрент Звонок The Ring Фильм бесплатно в хорошем качестве torrent

Скачивайте на UnionPeer.org фильмы через торрент без регистрации. Новинки кино в хорошем качестве через торрент. На UnionPeer.org можно скачать через торрент фильмы 2014 и 2015 годов. Самые новые фильмы.

Скачать торрент Звонок The Ring бесплатно через .torrent фильм мультфильм сериал

Статистика раздачи
Размер:  1.46 GB   |    Зарегистрирован:  8 лет 4 месяца   |    .torrent скачан:  66 раз   |   
Раздают:  1  
 

Скачать Звонок / The Ring (Гор Вербински / Gore Verbinski) [2002, США, Япония, Мистика, ужасы, триллер, VHSRip] [FullScreen] Dub (Пифагор) через torrent

 
 
Автор Сообщение

Galfimbul

avatar Galfimbul


Звонок / The Ring

[FullScreen]
Страна: США, Япония
Жанр: Мистика, ужасы, триллер
Год выпуска: 2002
Продолжительность: 01:50:43

Перевод: Профессиональный (дублированный) Пифагор
Cубтитры: нет
Режиссер: Гор Вербински / Gore Verbinski

В ролях: Наоми Уоттс (Rachel), Мартин Хендерсон (Noah), Дэвид Дорфман (Aidan), Брайан Кокс (Richard Morgan), Джейн Александр (Dr. Grasnik), Линдси Фрост (Ruth), Эмбер Тэмблин (Katie), Рейчел Белла (Becca), Дэйви Чейз (Samara), Шэннон Кокрен (Anna Morgan), Сандра Тигпен (Teacher), Ричард Лайнбэк

Описание: Перед тем, как ты умрешь, ты услышишь... звонок.
От режиссера блокбастера "Пираты Карибского моря" Гора Вербински!

Грандиозная американская версия культового японского фильма ужасов "Звонок" - одного из самых жутких фильмов современного кино! Постановщиком блестящего заокеанского римейка стал Гор Вербински, режиссер "Пиратов Карибского Моря", "Мышиной охоты" и "Мексиканца", а главную роль исполнила звезда "Малхолланд Драйв" - Наоми Уоттс.

Говорят, что существует видеокассета, которая приносит смерть... Если посмотреть ее, то раздастся телефонный звонок, и ровно через семь дней ты умрешь... Обычная байка, которую принято рассказывать перед сном, скажете вы? Но ведь от страшных сказок люди не умирают?! После того, как четыре тинэйджера скончались при схожих обстоятельствах, репортер Рэйчел Келлер (Уоттс) решает расследовать загадочную гибель подростков и находит пресловутую кассету. К несчастью, помимо Рэйчел, пленку случайно посмотрел ее маленький сын. Теперь у героини есть ровно семь дней, чтобы разгадать зловещую тайну и попытаться спасти себя и своего ребенка…

Доп. информация: Оцифровка лицензионной VHS (личный архив) и получение VHSRip alenavova

Эксклюзив для rutracker.org. При размещении данного релиза на других сайтах ссылка на автора alenavova обязательна.

Релиз

Сэмпл: https://yadi.sk/i/_jdlNBvWjb7Md

Качество видео: VHSRip
Формат видео: AVI

Видео: 704x528 (1.33:1), 25 fps, XviD build 50 ~1691 kbps avg, 0.18 bit/pixel
Аудио: 48 kHz, AC3 Dolby Digital, 2/0 (L,R) ch, ~192 kbps
Звонок - The Ring (by alenavova).avi
Format : AVI
Format/Info : Audio Video Interleave
File size : 1.46 GiB
Duration : 1h 50mn
Overall bit rate : 1 893 Kbps
Movie name : Звонок - The Ring (by alenavova)
Director : by alenavova
Writing application : VirtualDubMod 1.5.10.3 | www.virtualdub-fr.org || (build 2550/release)
Copyright : Edich2
Comment : RuTracker.org

Video
ID : 0
Format : MPEG-4 Visual
Format profile : Advanced Simple@L5
Format settings, BVOP : 1
Format settings, QPel : No
Format settings, GMC : No warppoints
Format settings, Matrix : Default (MPEG)
Codec ID : XVID
Codec ID/Hint : XviD
Duration : 1h 50mn
Bit rate : 1 692 Kbps
Width : 704 pixels
Height : 528 pixels
Display aspect ratio : 4:3
Frame rate : 25.000 fps
Color space : YUV
Chroma subsampling : 4:2:0
Bit depth : 8 bits
Scan type : Progressive
Compression mode : Lossy
Bits/(Pixel*Frame) : 0.182
Stream size : 1.31 GiB (89%)
Writing library : XviD 1.2.1 (UTC 2008-12-04)

Audio
ID : 1
Format : AC-3
Format/Info : Audio Coding 3
Mode extension : CM (complete main)
Format settings, Endianness : Big
Codec ID : 2000
Duration : 1h 50mn
Bit rate mode : Constant
Bit rate : 192 Kbps
Channel(s) : 2 channels
Channel positions : Front: L R
Sampling rate : 48.0 KHz
Bit depth : 16 bits
Compression mode : Lossy
Stream size : 152 MiB (10%)
Alignment : Split accross interleaves
Interleave, duration : 40 ms (1.00 video frame)
Interleave, preload duration : 500 ms


Внимание! AdBlock блокирует показ скриншотов, все вопросы к разработчикам )))
Трекер:  [ 14-Окт-2015 22:30 ]

  

Скачать .torrent

Размер .torrent файла 15 KB


Размер: 1.46 GB
Хэш (hash) релиза: 1324a54970a0236d5cca312008b668b23c9a6527
Подписка на обновления:

Торренты, похожие на Звонок The Ring скачать торрент

Форум Название Автор Размер S L Добавлен
Зарубежные фильмы до 2016 ·· Звонок / The Ring (Гор Вербински / Gore Verbinski) [2002, ужасы, триллер, детектив, HDTVRip 720p] Galfimbul 46952328194.37 GB 0 0 1523820645

22:30

15-Апр-18

Зарубежные фильмы до 2016 ·· Звонок / The Ring (Гор Вербински / Gore Verbinski) [2002 г., США, Япония, BDRip-AVC] Dub + Original (Eng) + Sub (Rus, Eng) Galfimbul 31083917972.89 GB 0 0 1346583960

14:06

2-Сен-12

Зарубежные фильмы до 2016 ·· Звонок / The Ring (Гор Вербински / Gore Verbinski) [2002, США, Япония, ужасы, триллер, детектив, BDRip] Dub + Original + Subs (Rus, Eng) Galfimbul 23411008632.18 GB 0 0 1340011440

12:24

18-Июн-12

Зарубежные фильмы до 2016 ·· Звонок / The Ring (Гор Вербински / Gore Verbinski) [2002 г., ужасы, триллер, детектив, BDRip 720p] _N_ 1240303510511.55 GB 0 0 1339420020

16:07

11-Июн-12

Зарубежные фильмы до 2016 ·· Звонок / The Ring (Гор Вербински / Gore Verbinski) [2002 г., ужасы, триллер, детектив, HDTVRip 720p] Galfimbul 46952328194.37 GB 0 0 1295729584

23:53

22-Янв-11

Зарубежные фильмы до 2016 ·· Звонок / The Ring (Гор Вербински / Gore Verbinski) [2002 г., ужасы, триллер, детектив, DTheaterRip] Rus + Eng + Subs Ziki 22787531922.12 GB 0 0 1290621253

20:54

24-Ноя-10

Зарубежные фильмы до 2016 ·· Звонок 2 / The Ring Two (Хидео Наката / Hideo Nakata) [2005, США, ужасы, детектив, WEB-DLRip-AVC] Dub (iTunes) + Rus Subs Galfimbul 15613020771.45 GB 0 0 1477299968

12:06

24-Окт-16

Зарубежные фильмы до 2016 ·· Звонок 2 / The Ring Two (Хидео Наката / Hideo Nakata) [2005, США, ужасы, триллер, детектив, WEB-DL 720p] Dub + Sub Rus + Original Eng Galfimbul 36283097243.38 GB 0 0 1385219635

18:13

23-Ноя-13

Зарубежные фильмы до 2016 ·· Звонок: Вирус / The Ring Virus (Донг-бин Ким / Dong-bin Kim) [1999, Корея, ужасы, DVD9] R5 DVO + Original (Chinese) L 54601482245.09 GB 0 0 1320608862

22:47

6-Ноя-11

Зарубежные фильмы до 2016 ·· Звонок 2 / The Ring Two (Хидео Наката / Hideo Nakata) [2005 г., триллер, драма, детектив, ужасы, HDTVRip] DUB Ziki 15630110721.46 GB 0 0 1290621183

20:53

24-Ноя-10

Еще никто не оставлял запись к записи скачать торрент Звонок The Ring . Будь первым!

!Обратная связь