The Ring torrent

UnionPeer.org . . UnionPeer.org 2014 2015 . .

The Ring .torrent

11.55 GB   |    :  11    |    .torrent :  79    |   
1  
   
 

_N_

avatar _N_



/ The Ring
: 2002
: ,
: , ,
: 01:55:18
: ( )
: (, ) DDV
: (, ) 2
: (x2),
: / Gore Verbinski

: , , , , , , , , ,
: , . , .

- , , , . - ...
: BDRip -
: MKV
: MPEG-4 AVC Video 8789 kbps 1280x692p / 23,976 fps / 1,85:1 / High Profile 4.1
: Dolby Digital Audio Russian 5.1 / 48 kHz / 448 kbps |
: Dolby Digital Audio Russian 5.1 / 48 kHz / 384 kbps | DDV
: DTS Audio Russian 5.1 / 48 kHz / 1509 kbps / 24-bit |
: DTS Audio Russian 5.1 / 48 kHz / 1509 kbps / 24-bit |
: DTS Audio English 5.1 / 48 kHz / 1509 kbps / 24-bit
3-4 DTS-HD-MA
<!--/code_head--> <div class="c-body">General
Complete name : X:\ -= =-\ (2002. The Ring).mkv
Format : Matroska
File size : 11.6 GiB
Duration : 1h 55mn
Overall bit rate : 14.3 Mbps
Movie name : http://http:///forum/viewtopic.php?t=4088737
Encoded date : UTC 2012-06-09 05:09:58
Writing application : mkvmerge v4.9.1 ('Ich will') Jul 11 2011 23:53:15
Writing library : libebml v1.2.1 + libmatroska v1.1.1

Video
ID : 1
Format : AVC
Format/Info : Advanced Video Codec
Format profile : <a href="mailto:[email protected]" class="postLink">[email protected]</a>
Format settings, CABAC : Yes
Format settings, ReFrames : 9 frames
Muxing mode : Container [email protected]
Codec ID : V_MPEG4/ISO/AVC
Duration : 1h 55mn
Bit rate : 8 695 Kbps
Width : 1 280 pixels
Height : 692 pixels
Display aspect ratio : 1.850
Frame rate : 23.976 fps
Color space : YUV
Chroma subsampling : 4:2:0
Bit depth : 8 bits
Scan type : Progressive
Bits/(Pixel*Frame) : 0.409
Stream size : 7.00 GiB (61%)
Title : The.Ring.2002.720p.BluRay.DD5.1.x264-EbP
Writing library : x264 core 125 r2200 999b753
Encoding settings : cabac=1 / ref=9 / deblock=1:-3:-3 / analyse=0x3:0x113 / me=tesa / subme=11 / psy=1 / psy_rd=1.00:0.00 / mixed_ref=1 / me_range=16 / chroma_me=1 / trellis=2 / 8x8dct=1 / cqm=0 / deadzone=21,11 / fast_pskip=0 / chroma_qp_offset=-2 / threads=12 / lookahead_threads=2 / sliced_threads=0 / nr=0 / decimate=0 / interlaced=0 / bluray_compat=0 / constrained_intra=0 / bframes=9 / b_pyramid=2 / b_adapt=2 / b_bias=0 / direct=3 / weightb=1 / open_gop=0 / weightp=2 / keyint=250 / keyint_min=23 / scenecut=40 / intra_refresh=0 / rc=crf / mbtree=0 / crf=16.5 / qcomp=0.60 / qpmin=0 / qpmax=69 / qpstep=4 / ip_ratio=1.40 / pb_ratio=1.20 / aq=1:0.82
Language : English

Audio #1
ID : 2
Format : AC-3
Format/Info : Audio Coding 3
Mode extension : CM (complete main)
Codec ID : A_AC3
Duration : 1h 55mn
Bit rate mode : Constant
Bit rate : 448 Kbps
Channel(s) : 6 channels
Channel positions : Front: L C R, Side: L R, LFE
Sampling rate : 48.0 KHz
Bit depth : 16 bits
Stream size : 369 MiB (3%)
Title :
Language : Russian

Audio #2
ID : 3
Format : AC-3
Format/Info : Audio Coding 3
Mode extension : CM (complete main)
Codec ID : A_AC3
Duration : 1h 55mn
Bit rate mode : Constant
Bit rate : 384 Kbps
Channel(s) : 6 channels
Channel positions : Front: L C R, Side: L R, LFE
Sampling rate : 48.0 KHz
Bit depth : 16 bits
Stream size : 317 MiB (3%)
Title : DDV
Language : Russian

Audio #3
ID : 4
Format : DTS
Format/Info : Digital Theater Systems
Codec ID : A_DTS
Duration : 1h 55mn
Bit rate mode : Constant
Bit rate : 1 510 Kbps
Channel(s) : 6 channels
Channel positions : Front: L C R, Side: L R, LFE
Sampling rate : 48.0 KHz
Bit depth : 24 bits
Stream size : 1.22 GiB (11%)
Title : AVO [ ]
Language : Russian

Audio #4
ID : 5
Format : DTS
Format/Info : Digital Theater Systems
Codec ID : A_DTS
Duration : 1h 55mn
Bit rate mode : Constant
Bit rate : 1 510 Kbps
Channel(s) : 6 channels
Channel positions : Front: L C R, Side: L R, LFE
Sampling rate : 48.0 KHz
Bit depth : 24 bits
Stream size : 1.22 GiB (11%)
Title : AVO [ ]
Language : Russian

Audio #5
ID : 6
Format : DTS
Format/Info : Digital Theater Systems
Codec ID : A_DTS
Duration : 1h 55mn
Bit rate mode : Constant
Bit rate : 1 510 Kbps
Channel(s) : 6 channels
Channel positions : Front: L C R, Side: L R, LFE
Sampling rate : 48.0 KHz
Bit depth : 24 bits
Stream size : 1.22 GiB (11%)
Language : English

Text #1
ID : 7
Format : UTF-8
Codec ID : S_TEXT/UTF8
Codec ID/Info : UTF-8 Plain Text
Title : R5
Language : Russian

Text #2
ID : 8
Format : UTF-8
Codec ID : S_TEXT/UTF8
Codec ID/Info : UTF-8 Plain Text
Title : v2
Language : Russian

Text #3
ID : 9
Format : UTF-8
Codec ID : S_TEXT/UTF8
Codec ID/Info : UTF-8 Plain Text
Title : SRT
Language : English

Menu
00:00:00.000 : en:CHAPTER01
00:07:32.911 : en:CHAPTER02
00:12:39.175 : en:CHAPTER03
00:15:36.561 : en:CHAPTER04
00:21:54.939 : en:CHAPTER05
00:23:42.504 : en:CHAPTER06
00:26:47.606 : en:CHAPTER07
00:32:03.588 : en:CHAPTER08
00:37:14.107 : en:CHAPTER09
00:39:21.859 : en:CHAPTER10
00:42:32.341 : en:CHAPTER11
00:47:26.844 : en:CHAPTER12
00:49:19.373 : en:CHAPTER13
00:54:37.107 : en:CHAPTER14
00:58:46.106 : en:CHAPTER15
01:00:55.026 : en:CHAPTER16
01:08:55.590 : en:CHAPTER17
01:13:47.381 : en:CHAPTER18
01:20:35.998 : en:CHAPTER19
01:23:45.395 : en:CHAPTER20
01:38:01.876 : en:CHAPTER21
01:44:13.581 : en:CHAPTER22
01:47:06.420 : en:CHAPTER23 <!--/code--><!--/code_wrap-->
  
RELEASE NAME..: The.Ring.2002.720p.BluRay.DD5.1.x264-EbPRELEASE DATE..: 06/08/2012RELEASE SIZE..: 7.74 GBRUNTIME.......: 1:55:18VIDEO CODEC...: x264, CRF, L4.1FRAMERATE.....: 23.976 fpsBITRATE.......: 8789 KbpsRESOLUTION....: 1280x692AUDIO 1.......: English DD5.1 @ 640 KbpsSUBTITLES.....: English .srtCHAPTER.......: IncludedSOURCE........: 1080p Remux


! AdBlock , )))
 ·  , , FAQ-
:  [ 11--2012 16:07 ]

  

.torrent

.torrent 58 KB


: 11.55 GB
(hash) : 0cbe369956d7a260a6bcf30027fca6eb7accfa88
:
··
...

The Ring . !

!