Скачать через торрент Дочь Бога Exposed Фильм бесплатно в хорошем качестве torrent

Скачивайте на UnionPeer.org фильмы через торрент без регистрации. Новинки кино в хорошем качестве через торрент. На UnionPeer.org можно скачать через торрент фильмы 2014 и 2015 годов. Самые новые фильмы.

Скачать торрент Дочь Бога Exposed бесплатно через .torrent фильм мультфильм сериал

Статистика раздачи
Размер:  1.48 GB   |    Зарегистрирован:  2 года 8 месяцев   |    .torrent скачан:  382 раза   |   
Раздают:  1  
   
загрузка...
 
Автор Сообщение

Galfimbul

avatar Galfimbul


Дочь Бога / Exposed

Страна: США
Жанр: драма
Год выпуска: 2016
Продолжительность: 01:42:30
Перевод: Любительский (двухголосный закадровый) DeadSno & Den904
Cубтитры: английские
Оригинальная аудиодорожка: нет
Режиссер: Деклан Дэйл / Declan Dale
В ролях: Ана де Армас, Мира Сорвино, Биг Дэдди Кэйн, Кристофер МакДональд, Лаура Гомез, Melissa Linton, Киану Ривз, Клара Вонг, Майкл Рисполи, Дения Браче
Описание: С женщиной, которая стала свидетелем чуда, начинают происходить странные вещи. А в это время полицейский детектив пытается разобраться в том, что привело к смерти его напарника.
Сэмпл: http://sendfile.su/1200106
Качество видео: WEB-DLRip 1080p
Формат видео: AVI

Видео: 720x304 (2.37:1), 23.976 fps, XviD build 50 ~1861 kbps avg, 0.35 bit/pixel
Аудио: 48 kHz, AC3 Dolby Digital, 2/0 (L,R) ch, ~192 kbps
Формат субтитров: hardsub (не отключаемые) на испанскую речь
Формат : AVI
Формат/Информация : Audio Video Interleave
Размер файла : 1,48 Гбайт
Продолжительность : 1 ч. 42 м.
Общий поток : 2063 Кбит/сек
Программа кодирования : VirtualDubMod 1.5.10.3 | www.virtualdub-fr.org || (build 2550/release)
Библиотека кодирования : VirtualDubMod build 2550/release

Видео
Идентификатор : 0
Формат : MPEG-4 Visual
Профиль формата : Advanced Simple@L5
Параметр BVOP формата : 1
Параметр QPel формата : Нет
Параметр GMC формата : Без точки перехода
Параметр матрицы формата : Default (MPEG)
Идентификатор кодека : XVID
Идентификатор кодека/Подсказка : XviD
Продолжительность : 1 ч. 42 м.
Битрейт : 1861 Кбит/сек
Ширина : 720 пикселей
Высота : 304 пикселя
Соотношение сторон : 2,35:1
Частота кадров : 23,976 (23976/1000) кадра/сек
Цветовое пространство : YUV
Субдискретизация насыщенности : 4:2:0
Битовая глубина : 8 бит
Тип развёртки : Прогрессивная
Метод сжатия : С потерями
Бит/(Пиксели*Кадры) : 0.355
Размер потока : 1,33 Гбайт (90%)
Библиотека кодирования : XviD 1.2.1 (UTC 2008-12-04)

Аудио
Идентификатор : 1
Формат : AC-3
Формат/Информация : Audio Coding 3
Расширение режима : CM (complete main)
Параметр Endianness формата : Big
Идентификатор кодека : 2000
Продолжительность : 1 ч. 42 м.
Вид битрейта : Постоянный
Битрейт : 192 Кбит/сек
Каналы : 2 канала
Расположение каналов : Front: L R
Частота : 48,0 КГц
Частота кадров : 31,250 кадров/сек (1536 spf)
Метод сжатия : С потерями
Размер потока : 141 Мбайт (9%)
Выравнивание : Разделение по промежуткам
Продолжительность промежутка : 42 мс. (1,00 видеокадр)
Время предзагрузки промежутка : 500 мс.


Трекер:  [ 02-Фев-2016 18:30 ]

  

Скачать .torrent

Размер .torrent файла 15 KB


Размер: 1.48 GB
Хэш (hash) релиза: 8d53e5a2951bc3e8fa1de271e7ccccd6078ad115
Подписка на обновления:

Торренты, похожие на Дочь Бога Exposed скачать торрент

Форум Название Автор Размер S L Добавлен
Зарубежные фильмы 2016-2018 (Новинки зарубежного кино) ·· Дочь Бога / Exposed (Деклан Дэйл / Declan Dale) [2016, США, Драма, HDRip] звук с TS Galfimbul 14676131841.37 GB 0 0 1473920242

09:17

15-Сен-16

Зарубежные фильмы 2016-2018 (Новинки зарубежного кино) ·· Дочь Бога / Exposed (Деклан Дэйл / Declan Dale) [2016, США, Драма, BDRip 720p] звук с TS Galfimbul 46124465944.3 GB 0 0 1473920119

09:15

15-Сен-16

Зарубежные фильмы 2016-2018 (Новинки зарубежного кино) ·· Дочь Бога / Exposed (Деклан Дэйл / Declan Dale) [2016, США, Драма, BDRip 1080p] звук с TS Galfimbul 86843693058.09 GB 0 0 1473920054

09:14

15-Сен-16

Зарубежные фильмы 2016-2018 (Новинки зарубежного кино) ·· Дочь Бога / Exposed (Деклан Дэйл / Declan Dale) [2016, США, Драма, HDRip] MVO (Paradox & Omskbird records) Galfimbul 14673203201.37 GB 0 0 1457825586

02:33

13-Мар-16

Зарубежные фильмы 2016-2018 (Новинки зарубежного кино) ·· Дочь Бога / Exposed (Деклан Дэйл / Declan Dale) [2016, США, Драма, WEB-DLRip] MVO (Paradox & Omskbird records) + Sub Eng Galfimbul 775718912740 MB 0 0 1454684294

17:58

5-Фев-16

Зарубежные фильмы до 2016 ·· Дочь Бога / Exposed (Деклан Дэйл / Declan Dale) [2016, США, драма, WEB-DL 720p] DVO + Sub Eng + Original Eng Galfimbul 35747671953.33 GB 0 0 1454610451

21:27

4-Фев-16

Зарубежные фильмы 2016-2018 (Новинки зарубежного кино) ·· Разоблачение / Дочь Бога / Exposed (Деклан Дэйл / Declan Dale) [2016, США, Драма, HDRip] Sub Rus + Original Eng Galfimbul 14595584821.36 GB 0 0 1454274615

00:10

1-Фев-16

Зарубежные фильмы 2016-2018 (Новинки зарубежного кино) ·· Дочь Бога / Daughter of God / Exposed (Деклан Дэйл / Declan Dale) [2016, США, триллер, драма, криминал, детектив, BDRip] MVO + Original Eng + Sub Rus, Eng Galfimbul 23662675612.2 GB 0 0 1482652546

10:55

25-Дек-16

Зарубежные фильмы 2016-2018 (Новинки зарубежного кино) ·· Дочь Бога / Daughter of God / Exposed (Деклан Дэйл / Declan Dale) [2016, США, Драма, BDRip] MVO (iTunes) Galfimbul 15640514561.46 GB 0 0 1475125271

08:01

29-Сен-16

Зарубежные фильмы 2016-2018 (Новинки зарубежного кино) ·· Дочь Бога / Daughter of God / Exposed (Деклан Дэйл / Declan Dale) [2016, США, Драма, HDRip] MVO (Paradox & Omskbird records) Galfimbul 779491328743 MB 0 0 1459659741

08:02

3-Апр-16

Зарубежные фильмы 2016-2018 (Новинки зарубежного кино) ·· Дочь Бога / Daughter of God / Exposed (Деклан Дэйл / Declan Dale) [2016, США, Драма, BDRip] MVO (Paradox & Omskbird records) Galfimbul 15642521601.46 GB 0 0 1458514076

01:47

21-Мар-16

Трейлеры и дополнительные материалы ·· Дочь Бога. Русский фан-ролик / Exposed. Russian Fan-Made Trailer (Declan Dale) [2016, Драма, HDRip] трейлер Galfimbul 1337305913 MB 0 0 1453283080

12:44

20-Янв-16

Еще никто не оставлял запись к записи скачать торрент Дочь Бога Exposed . Будь первым!

!Обратная связь