Скачать через торрент 5-я волна The 5th Wave Фильм бесплатно в хорошем качестве torrent

Скачивайте на UnionPeer.org фильмы через торрент без регистрации. Новинки кино в хорошем качестве через торрент. На UnionPeer.org можно скачать через торрент фильмы 2014 и 2015 годов. Самые новые фильмы.

Скачать торрент 5-я волна The 5th Wave бесплатно через .torrent фильм мультфильм сериал

Статистика раздачи
Размер:  752 MB   |    Зарегистрирован:  2 года 6 месяцев   |    .torrent скачан:  258 раз   |   
Раздают:  1  
   
загрузка...
 
Автор Сообщение

Galfimbul

avatar Galfimbul


5-я волна / The 5th Wave
Страна: США
Жанр: Фантастика, боевик, триллер, приключения
Год выпуска: 2016
Продолжительность: 01:47:46

Перевод: Профессиональный (дублированный) звук с TS
Cубтитры: английские
Оригинальная аудиодорожка: английский

Режиссер: Дж. Блэйксон / J. Blakeson

В ролях: Хлоя Грейс Морец, Ник Дж. Робинсон, Рон Ливингстон, Мэгги Сифф, Алекс Роу, Мария Белло, Майка Монро, Лив Шрайбер, Закари Артур, Тони Револори

Описание: Первая волна оставила за собой мглу. От второй успели убежать только самые везучие. Но едва ли можно назвать везучими тех, кто уцелел после третьей. А четвертая волна стерла все человеческие законы, взамен же установила свой, один-единственный: хочешь жить — не верь никому. И вот уже накатывает пятая волна…

Сэмпл: http://multi-up.com/1093889

Качество видео: WEBRip
Формат видео: MKV

Видео: AVC 845 Кбит/сек 720 x 304 (2.368) 25.000 fps
Аудио: AAC 64,4 Кбит/сек 2 канала, 48,0 КГц
Аудио 2: AAC 64,0 Кбит/сек 2 канала, 48,0 КГц / 24,0 КГц
Формат субтитров: softsub (SRT)
Формат : Matroska
Версия формата : Version 4 / Version 2
Размер файла : 752 Мбайт
Продолжительность : 1 ч. 47 м.
Общий поток : 976 Кбит/сек
Название фильма : The.5th.Wave.2016.HDRip.700MB.MkvCage
Дата кодирования : UTC 2016-03-20 10:25:41
Программа кодирования : mkvmerge v8.3.0 ('Over the Horizon') 64bit
Библиотека кодирования : libebml v1.3.1 + libmatroska v1.4.2

Видео
Идентификатор : 1
Формат : AVC
Формат/Информация : Advanced Video Codec
Профиль формата : High@L4.1
Параметр CABAC формата : Да
Параметр ReFrames формата : 5 кадров
Идентификатор кодека : V_MPEG4/ISO/AVC
Продолжительность : 1 ч. 47 м.
Битрейт : 845 Кбит/сек
Ширина : 720 пикселей
Высота : 304 пикселя
Соотношение сторон : 2,35:1
Режим частоты кадров : Постоянный
Частота кадров : 25,000 кадров/сек
Цветовое пространство : YUV
Субдискретизация насыщенности : 4:2:0
Битовая глубина : 8 бит
Тип развёртки : Прогрессивная
Бит/(Пиксели*Кадры) : 0.154
Размер потока : 651 Мбайт (87%)
Заголовок : The 5th Wave (2015) WEBRip
Библиотека кодирования : x264 core 146 r2538 121396c
Настройки программы : cabac=1 / ref=5 / deblock=1:-1:-1 / analyse=0x3:0x113 / me=umh / subme=8 / psy=1 / psy_rd=1.00:0.00 / mixed_ref=1 / me_range=16 / chroma_me=1 / trellis=1 / 8x8dct=1 / cqm=0 / deadzone=21,11 / fast_pskip=1 / chroma_qp_offset=-2 / threads=60 / lookahead_threads=2 / sliced_threads=0 / nr=0 / decimate=1 / interlaced=0 / bluray_compat=0 / constrained_intra=0 / bframes=3 / b_pyramid=2 / b_adapt=2 / b_bias=0 / direct=3 / weightb=1 / open_gop=0 / weightp=2 / keyint=250 / keyint_min=25 / scenecut=40 / intra_refresh=0 / rc_lookahead=50 / rc=2pass / mbtree=1 / bitrate=845 / ratetol=1.0 / qcomp=0.60 / qpmin=10 / qpmax=51 / qpstep=4 / cplxblur=20.0 / qblur=0.5 / vbv_maxrate=62500 / vbv_bufsize=78125 / nal_hrd=none / filler=0 / ip_ratio=1.40 / aq=1:1.00
Default : Да
Forced : Нет

Аудио #1
Идентификатор : 2
Формат : AAC
Формат/Информация : Advanced Audio Codec
Профиль формата : LC
Идентификатор кодека : A_AAC
Продолжительность : 1 ч. 47 м.
Битрейт : 64,4 Кбит/сек
Каналы : 2 канала
Расположение каналов : Front: L R
Частота : 48,0 КГц
Частота кадров : 46,875 кадров/сек (1024 spf)
Метод сжатия : С потерями
Размер потока : 49,7 Мбайт (7%)
Язык : Russian
Default : Нет
Forced : Нет

Аудио #2
Идентификатор : 3
Формат : AAC
Формат/Информация : Advanced Audio Codec
Профиль формата : HE-AAC / LC
Идентификатор кодека : A_AAC
Продолжительность : 1 ч. 47 м.
Битрейт : 64,0 Кбит/сек
Каналы : 2 канала
Расположение каналов : Front: L R
Частота : 48,0 КГц / 24,0 КГц
Частота кадров : 23,438 кадра/сек (1024 spf)
Метод сжатия : С потерями
Задержка видео : 31 мс.
Размер потока : 49,3 Мбайт (7%)
Язык : English
Default : Да
Forced : Нет

Текст
Идентификатор : 4
Формат : UTF-8
Идентификатор кодека : S_TEXT/UTF8
Идентификатор кодека/Информация : UTF-8 Plain Text
Продолжительность : 1 ч. 44 м.
Битрейт : 58 бит/сек
Count of elements : 1590
Размер потока : 44,9 Кбайт (0%)
Язык : English
Default : Да
Forced : Нет


Трекер:  [ 20-Мар-2016 15:00 ]

  

Скачать .torrent

Размер .torrent файла 15 KB


Размер: 752 MB
Хэш (hash) релиза: e33576ea0c79ba538f3f728772afe78d9bbc50e6
Подписка на обновления:

Торренты, похожие на 5-я волна The 5th Wave скачать торрент

Форум Название Автор Размер S L Добавлен
Зарубежные фильмы до 2016 ·· 5-я волна / The 5th Wave (Дж. Блэйксон / J. Blakeson) [2016, США, Фантастика, боевик, триллер, приключения, DVD9] R5 Dub + Sub Rus + Original Eng Galfimbul 79979110407.45 GB 0 0 1526715030

10:30

19-Май-18

Зарубежные фильмы 2016-2018 (Новинки зарубежного кино) ·· 5-я волна / The 5th Wave (Дж. Блэйксон / J. Blakeson) [2016, США, фантастика, боевик, триллер, Blu-ray CEE] Лицензия Galfimbul 4200562711839.12 GB 0 0 1467224112

21:15

29-Июн-16

Зарубежные фильмы до 2016 ·· 5-я волна / The 5th Wave (Дж. Блэйксон / J Blakeson) [2016, США, фантастика, боевик, триллер, приключения, BDRip 1080p] Dub (EUR) + Ukr (EUR) + Original Eng + subs (Rus, Eng) Galfimbul 1447468783213.48 GB 0 0 1464002524

14:22

23-Май-16

Зарубежные фильмы 2016-2018 (Новинки зарубежного кино) ·· 5-я волна / The 5th Wave (Дж. Блэйксон / J. Blakeson) [2016, США, фантастика, боевик, триллер, BDRip-AVC] Dub + Sub (rus, ukr, eng) Galfimbul 15654517161.46 GB 0 0 1463749087

15:58

20-Май-16

Зарубежные фильмы 2016-2018 (Новинки зарубежного кино) ·· 5-я волна / The 5th Wave (Дж. Блэйксон / J. Blakeson) [2016, США, Фантастика, боевик, триллер, приключения, HDRip] Dub (iTunes) Galfimbul 780955648745 MB 0 0 1463736455

12:27

20-Май-16

Зарубежные фильмы до 2016 ·· 5-я волна / The 5th Wave (Дж. Блэйксон / J. Blakeson) [2016, США, фантастика, боевик, триллер, приключения, BDRip 720p] Dub + Sub Rus, Ukr, Eng + Original Eng Galfimbul 56070212405.22 GB 0 0 1463716233

06:50

20-Май-16

Зарубежные фильмы 2016-2018 (Новинки зарубежного кино) ·· 5-я волна / The 5th Wave (Дж. Блэйксон / J. Blakeson) [2016, США, фантастика, боевик, триллер, приключения, HDRip-AVC] Dub (iTunes) + sub (rus, eng, ukr) Galfimbul 781165815745 MB 0 0 1462836260

02:24

10-Май-16

Зарубежные фильмы 2016-2018 (Новинки зарубежного кино) ·· 5-я волна / The 5th Wave (Дж. Блэйксон / J. Blakeson) [2016, США, Фантастика, боевик, триллер, приключения, WEB-DLRip] Dub (iTunes) Galfimbul 782501888746 MB 0 0 1461670064

14:27

26-Апр-16

Зарубежные фильмы 2016-2018 (Новинки зарубежного кино) ·· 5-я волна / The 5th Wave (Дж. Блэйксон / J. Blakeson) [2016, США, Фантастика, боевик, триллер, приключения, HDRip] Dub (iTunes) + Original Eng + Sub Rus Galfimbul 22088980692.06 GB 0 0 1461669944

14:25

26-Апр-16

Зарубежные фильмы 2016-2018 (Новинки зарубежного кино) ·· 5-я волна / The 5th Wave (Дж. Блэйксон / J. Blakeson) [2016, США, фантастика, боевик, триллер, BDRip-AVC] Dub + Sub (rus, ukr, eng) Galfimbul 15115277211.41 GB 0 0 1461669901

14:25

26-Апр-16

Зарубежные фильмы 2016-2018 (Новинки зарубежного кино) ·· 5-я волна / The 5th Wave (Дж. Блэйксон / J. Blakeson) [2016, США, Фантастика, боевик, триллер, приключения, HDRip] Dub (iTunes) + Original Eng + Sub Rus Galfimbul 22090107092.06 GB 0 0 1460495359

00:09

13-Апр-16

Зарубежные фильмы до 2016 ·· 5-я волна / The 5th Wave (Дж. Блэйксон / J. Blakeson) [2016, США, фантастика, боевик, триллер, приключения, BDRip 720p] Dub (iTunes) + Sub Rus, Ukr, Eng + Original Eng Galfimbul 53912435685.02 GB 0 0 1460464023

15:27

12-Апр-16

Зарубежные фильмы 2016-2018 (Новинки зарубежного кино) ·· 5-я волна / The 5th Wave (Дж. Блэйксон / J. Blakeson) [2016, США, фантастика, боевик, триллер, приключения, BDRip-AVC] Dub + Original + Sub (rus, eng) Galfimbul 23351246292.17 GB 0 0 1460462296

14:58

12-Апр-16

Зарубежные фильмы 2016-2018 (Новинки зарубежного кино) ·· 5-я волна / The 5th Wave (Дж. Блэйксон / J. Blakeson) [2016, США, Фантастика, боевик, триллер, приключения, BDRip] Dub (iTunes) Galfimbul 15670743041.46 GB 0 0 1460315400

22:10

10-Апр-16

Зарубежные фильмы 2016-2018 (Новинки зарубежного кино) ·· 5-я волна / The 5th Wave (Дж. Блэйксон / J. Blakeson) [2016, США, фантастика, боевик, триллер, приключения, BDRip 1080p] iTunes Galfimbul 1339768949912.48 GB 0 0 1460285037

13:43

10-Апр-16

Зарубежные фильмы 2016-2018 (Новинки зарубежного кино) ·· 5-я волна / The 5th Wave (Дж. Блэйксон / J. Blakeson) [2016, США, фантастика, боевик, триллер, приключения, WEB-DLRip-AVC] Dub Galfimbul 15731580061.47 GB 0 0 1460236000

00:06

10-Апр-16

Зарубежные фильмы 2016-2018 (Новинки зарубежного кино) ·· 5-я волна / The 5th Wave (Дж. Блэйксон / J. Blakeson) [2016, фантастика, боевик, триллер, приключения, BDRip 720p] iTunes Galfimbul 50180516034.67 GB 0 0 1460200442

14:14

9-Апр-16

Зарубежные фильмы 2016-2018 (Новинки зарубежного кино) ·· 5-я волна / The 5th Wave (Дж. Блэйксон / J. Blakeson) [2016, США, Фантастика, боевик, триллер, приключения, WEB-DL 1080p] iTunes Galfimbul 41683469213.88 GB 0 0 1459933836

12:10

6-Апр-16

Зарубежные фильмы 2016-2018 (Новинки зарубежного кино) ·· 5-я волна / The 5th Wave (Дж. Блэйксон / J. Blakeson) [2016, США, Фантастика, боевик, триллер, приключения, WEB-DLRip] Dub (iTunes) + Original Eng + Sub Rus Galfimbul 22056560852.05 GB 0 0 1459843319

11:01

5-Апр-16

Зарубежные фильмы 2016-2018 (Новинки зарубежного кино) ·· 5-я волна / The 5th Wave (Дж. Блэйксон / J. Blakeson) [2016, США, Фантастика, боевик, триллер, приключения, WEB-DLRip] iTunes Galfimbul 782606923746 MB 0 0 1459803136

23:52

4-Апр-16

Еще никто не оставлял запись к записи скачать торрент 5-я волна The 5th Wave . Будь первым!

!Обратная связь