Скачать через торрент Вуаль The Veil Фильм бесплатно в хорошем качестве torrent

Скачивайте на UnionPeer.org фильмы через торрент без регистрации. Новинки кино в хорошем качестве через торрент. На UnionPeer.org можно скачать через торрент фильмы 2014 и 2015 годов. Самые новые фильмы.

Скачать торрент Вуаль The Veil бесплатно через .torrent фильм мультфильм сериал

Статистика раздачи
Размер:  1.44 GB   |    Зарегистрирован:  2 года 5 месяцев   |    .torrent скачан:  51 раз   |   
Раздают:  1  
   
загрузка...
 
Автор Сообщение

Galfimbul

avatar Galfimbul


Вуаль / The Veil

Страна: США
Жанр: ужасы
Год выпуска: 2016
Продолжительность: 01:33:33
Перевод: Любительский (двухголосый закадровый) den904 & DeadSno
Cубтитры: нет
Оригинальная аудиодорожка: нет

Режиссер: Фил Джоану / Phil JoanouВ ролях:

Джессика Альба / Jessica Alba - Maggie Price
Томас Джейн / Thomas Jane - Jim Jacobs
Лили Рэйб / Lily Rabe - Sarah Hope
Шеннон Мари Вудворд / Shannon Marie Woodward - Jill
Рейд Скотт / Reid Scott - Nick
Алекса Палладино / Aleksa Palladino - Karen Sweetzer
Ленни Джейкобсон / Lenny Jacobson - EdОписание: Спустя тридцать лет после того, как члены религиозного культа совершили массовое самоубийство, единственный выживший из них возвращается на место трагедии, прихватив с собой группу кинодокументалистов.
Группа желает всем приятного просмотра!Качество видео: HDRip / BDRip (1080p)
Формат видео: AVI
Видео: 720x304 (2.37:1), 23.976 fps, XviD build 65 ~1999 kbps avg, 0.38 bit/pixel
Audio: 48 kHz, AC3 Dolby Digital, 2/0 (L,R) ch, ~192 kbps
<a href="viewtopic.php?t=5158223" class="postLink">...5158223</a>
http://screenshotcomparison.com/comparison/169982/picture:3
General
Complete name : C:\Users\Никита\Desktop\вуаль.avi
Format : AVI
Format/Info : Audio Video Interleave
File size : 1.44 GiB
Duration : 1h 33mn
Overall bit rate : 2 201 Kbps
Writing application : VirtualDubMod 1.5.10.2 (build 2540/release)
Writing library : VirtualDubMod build 2540/release

Video
ID : 0
Format : MPEG-4 Visual
Format profile : Advanced Simple@L5
Format settings, BVOP : 1
Format settings, QPel : No
Format settings, GMC : No warppoints
Format settings, Matrix : Custom
Codec ID : XVID
Codec ID/Hint : XviD
Duration : 1h 33mn
Bit rate : 1 999 Kbps
Width : 720 pixels
Height : 304 pixels
Display aspect ratio : 2.35:1
Frame rate : 23.976 (24000/1001) fps
Color space : YUV
Chroma subsampling : 4:2:0
Bit depth : 8 bits
Scan type : Progressive
Compression mode : Lossy
Bits/(Pixel*Frame) : 0.381
Stream size : 1.31 GiB (91%)
Writing library : XviD 65

Audio
ID : 1
Format : AC-3
Format/Info : Audio Coding 3
Mode extension : CM (complete main)
Format settings, Endianness : Big
Codec ID : 2000
Duration : 1h 33mn
Bit rate mode : Constant
Bit rate : 192 Kbps
Channel(s) : 2 channels
Channel positions : Front: L R
Sampling rate : 48.0 KHz
Frame rate : 31.250 fps (1536 spf)
Compression mode : Lossy
Stream size : 128 MiB (9%)
Alignment : Split accross interleaves
Interleave, duration : 42 ms (1.00 video frame)
Interleave, preload duratio : 500 ms


Трекер:  [ 26-Апр-2016 13:00 ]

  

Скачать .torrent

Размер .torrent файла 15 KB


Размер: 1.44 GB
Хэш (hash) релиза: 784b01488ff70404569931b74c35a31d9796c5c9
Подписка на обновления:

Торренты, похожие на Вуаль The Veil скачать торрент

Форум Название Автор Размер S L Добавлен
Зарубежные фильмы 2016-2018 (Новинки зарубежного кино) ·· Вуаль / The Veil (Фил Джоану / Phil Joanou) [2016, США, ужасы, WEB-DLRip] Galfimbul 14677135361.37 GB 0 0 1493325697

23:41

27-Апр-17

Зарубежные фильмы до 2016 ·· Вуаль / The Veil (Фил Джоану / Phil Joanou) [2016, США, ужасы, триллер, драма, BDRip 720p] Dub (iTunes) + Sub Rus, Eng + Original Eng Galfimbul 38501240113.59 GB 0 0 1476739719

00:28

18-Окт-16

Зарубежные фильмы 2016-2018 (Новинки зарубежного кино) ·· Вуаль / The Veil (Фил Джоану / Phil Joanou) [2016, США, ужасы, BDRip] Dub Galfimbul 15703838721.46 GB 0 0 1476557176

21:46

15-Окт-16

Зарубежные фильмы 2016-2018 (Новинки зарубежного кино) ·· Вуаль / The Veil (Фил Джоану / Phil Joanou) [2016, США, ужасы, BDRip] Dub Galfimbul 781395968745 MB 0 0 1476557163

21:46

15-Окт-16

Зарубежные фильмы 2016-2018 (Новинки зарубежного кино) ·· Вуаль / The Veil (Фил Джоану / Phil Joanou) [2016, США, ужасы, BDRip 1080p] Line Galfimbul 71116004066.62 GB 0 0 1467948482

06:28

8-Июл-16

Зарубежные фильмы 2016-2018 (Новинки зарубежного кино) ·· Вуаль / The Veil (Фил Джоану / Phil Joanou) [2016, США, ужасы, BDRip 720p] Чистый звук Galfimbul 38183604863.56 GB 0 0 1467938410

03:40

8-Июл-16

Зарубежные фильмы 2016-2018 (Новинки зарубежного кино) ·· Вуаль / The Veil (Фил Джоану / Phil Joanou) [2016, США, ужасы, HDRip] Line Galfimbul 14677360641.37 GB 0 0 1467925910

00:11

8-Июл-16

Зарубежные фильмы 2016-2018 (Новинки зарубежного кино) ·· Вуаль / The Veil (Фил Джоану / Phil Joanou) [2016, США, ужасы, WEB-DLRip] DVO (den904 & DeadSno) + Original Eng Galfimbul 15628492801.46 GB 0 0 1453806272

14:04

26-Янв-16

Зарубежные фильмы до 2016 ·· Разрисованная вуаль / The Painted Veil (Джон Керран) [2006, Китай, США, Мелодрама, Романтика, DVD9] Galfimbul 73375703046.83 GB 0 0 1503434193

23:36

22-Авг-17

Зарубежные фильмы до 2016 ·· Разрисованная вуаль / The Painted Veil (Джон Кёрран / John Curran) [2006, США, Канада, Китай, драма, мелодрама, BDRip 1080p] Galfimbul 100935900399.4 GB 0 0 1499377021

00:37

7-Июл-17

Зарубежные фильмы до 2016 ·· Разрисованная вуаль / The Painted Veil (Джон Керран) [2006, драма, HDTVRip 720p] Galfimbul 57610272515.37 GB 0 0 1497072983

08:36

10-Июн-17

Зарубежные фильмы до 2016 ·· Седьмая вуаль / The Seventh Veil (Комптон Беннет / Compton Bennett) [1945, Великобритания, психологическая драма, мелодрама, WEB-DL 720p] VO + Sub Rus, Eng + Original Eng Galfimbul 30972522982.88 GB 0 0 1427222595

21:43

24-Мар-15

Зарубежные фильмы до 2016 ·· Разрисованная вуаль / The Painted Veil (Ричард Болеславский / Richard Boleslawski) [1934, США, драма, DVD5 (Custom)] MVO + Sub Rus + Original Eng Galfimbul 45291008004.22 GB 0 0 1376037964

11:46

9-Авг-13

Зарубежные фильмы до 2016 ·· Разрисованная вуаль / The Painted Veil (Джон Кьюррен /John Curran) [2006 г., драма, мелодрама, BDRip] Dub Galfimbul 15661731841.46 GB 0 0 1352574600

22:10

10-Ноя-12

Зарубежные фильмы до 2016 ·· Разрисованная вуаль / The Painted Veil (Джон Кёрран / John Curran) [2006, США, Канада, Китай, Мелодрама, HDRip] AVO (Немахов) Galfimbul 15575449601.45 GB 0 0 1336142160

17:36

4-Май-12

Зарубежные фильмы до 2016 ·· Разрисованная вуаль / The Painted Veil (Джон Кёрран / John Curran) [2006, США, Канада, Китай, драма, мелодрама, BDRip 720p] Galfimbul 61638804175.74 GB 0 0 1315486702

15:58

8-Сен-11

Зарубежные фильмы до 2016 ·· Разрисованная вуаль / The Painted Veil (Джон Кёрран / John Curran) [2006, США, Канада, Китай, драма, мелодрама, Blu-ray disc (custom) 1080p] DUB Sub rus + original eng Galfimbul 2027022907618.88 GB 0 0 1314641879

21:17

29-Авг-11

Зарубежные фильмы до 2016 ·· Разрисованная вуаль / The Painted Veil (Джон Керран) [1080p] [2006 г., Драма, Мелодрама, BDRip] Nomak 100935900399.4 GB 0 0 1295725872

22:51

22-Янв-11

Зарубежные фильмы до 2016 ·· Разрисованная вуаль / The Painted Veil (Джон Кёрран / John Curran) [2006 г., мелодрама, драма, HDRip-AVC] VitalMedix 15591901851.45 GB 0 0 1287688114

22:08

21-Окт-10

Еще никто не оставлял запись к записи скачать торрент Вуаль The Veil . Будь первым!

!Обратная связь