Скачать через торрент Охота на работу Get a Job Фильм бесплатно в хорошем качестве torrent

Скачивайте на UnionPeer.org фильмы через торрент без регистрации. Новинки кино в хорошем качестве через торрент. На UnionPeer.org можно скачать через торрент фильмы 2014 и 2015 годов. Самые новые фильмы.

Скачать торрент Охота на работу Get a Job бесплатно через .torrent фильм мультфильм сериал

Статистика раздачи
Размер:  743 MB   |    Зарегистрирован:  2 года 5 месяцев   |    .torrent скачан:  36 раз   |   
Раздают:  1  
   
загрузка...
 
Автор Сообщение

Galfimbul

avatar Galfimbul


Охота на работу / Get a Job

Страна: США
Жанр: комедия
Год выпуска: 2016
Продолжительность: 01:22:45

Перевод: Любительский (многоголосый закадровый) RecentFilms
Cубтитры: нет
Оригинальная аудиодорожка: нет
Режиссер: Дилан Кидд / Dylan Kidd
В ролях: Элисон Бри, Анна Кендрик, Майлз Теллер, Брайан Крэнстон, Грег Джерманн, Кристофер Минц-Плассе, Марша Гей Харден, Николас Браун, Кэмерон Ричардсон, Джон К. МакГинли
Описание: Сюжет ленты строится вокруг выпускника колледжа и его друзей. Молодые специалисты стоят на распутье, чем заниматься, зачем и тому ли они учились. В стране Экономический кризис, а молодежь хочет отрываться.
<a href="viewtopic.php?t=1460328" class="postLink"> </a>
Качество видео: <a href="viewtopic.php?t=5195816" class="postLink">WEB-DLRip</a>
Формат видео: AVI

Видео: 656x368 (1.78:1), 23.976 fps, XviD build 65 ~1118 kbps avg, 0.19 bit/pixel
Аудио: 48 kHz, MPEG Layer 3, 2 ch, ~128.00 kbps avg
Сккачать сэмпл
Format                      : AVI
Format/Info                 : Audio Video Interleave
File size                   : 743 MiB
Duration                    : 1h 22mn
Overall bit rate            : 1 256 Kbps
Writing application         : VirtualDubMod 1.5.10.3 | www.virtualdub-fr.org || (build 2550/release)
Writing library             : VirtualDubMod build 2550/release

Video
ID                          : 0
Format                      : MPEG-4 Visual
Format profile              : Advanced Simple@L5
Format settings, BVOP       : 1
Format settings, QPel       : No
Format settings, GMC        : No warppoints
Format settings, Matrix     : Default (MPEG)
Codec ID                    : XVID
Codec ID/Hint               : XviD
Duration                    : 1h 22mn
Bit rate                    : 1 119 Kbps
Width                       : 656 pixels
Height                      : 368 pixels
Display aspect ratio        : 16:9
Frame rate                  : 23.976 (23976/1000) fps
Color space                 : YUV
Chroma subsampling          : 4:2:0
Bit depth                   : 8 bits
Scan type                   : Progressive
Compression mode            : Lossy
Bits/(Pixel*Frame)          : 0.193
Stream size                 : 662 MiB (89%)
Writing library             : XviD 65

Audio
ID                          : 1
Format                      : MPEG Audio
Format version              : Version 1
Format profile              : Layer 3
Codec ID                    : 55
Codec ID/Hint               : MP3
Duration                    : 1h 22mn
Bit rate mode               : Constant
Bit rate                    : 128 Kbps
Channel(s)                  : 2 channels
Sampling rate               : 48.0 KHz
Compression mode            : Lossy
Stream size                 : 75.8 MiB (10%)
Alignment                   : Aligned on interleaves
Interleave, duration        : 42 ms (1.00 video frame)
Interleave, preload duratio : 504 ms
Writing library             : LAME3.99r
Encoding settings           : -m s -V 4 -q 2 -lowpass 17 -b 128


Трекер:  [ 26-Апр-2016 13:00 ]

  

Скачать .torrent

Размер .torrent файла 15 KB


Размер: 743 MB
Хэш (hash) релиза: 28a69fd6c2233d94f377905ade02dac3b294c3b9
Подписка на обновления:

Торренты, похожие на Охота на работу Get a Job скачать торрент

Форум Название Автор Размер S L Добавлен
Зарубежные фильмы до 2016 ·· Охота на работу / Get a Job (Дилан Кидд / Dylan Kidd) [2016, США, комедия, BDRip 720p] MVO (Paradox & Omskbird records) + 3x Sub (Rus, Eng) + Original Eng Galfimbul 50793334524.73 GB 0 0 1466769317

14:55

24-Июн-16

Зарубежные фильмы 2016-2018 (Новинки зарубежного кино) ·· Охота на работу / Get a Job (Дилан Кидд / Dylan Kidd) [2016, США, комедия, BDRip-AVC] MVO + Original + Sub (rus, eng) Galfimbul 21950086622.04 GB 0 0 1466645136

04:25

23-Июн-16

Зарубежные фильмы до 2016 ·· Охота на работу / Get a Job (Дилан Кидд / Dylan Kidd) [2016, США, комедия, WEB-DL 720p] MVO + Original (Eng) Galfimbul 28630919392.67 GB 0 0 1459958971

19:09

6-Апр-16

Зарубежные фильмы 2016-2018 (Новинки зарубежного кино) ·· Охота на работу / Get a Job (Дилан Кидд / Dylan Kidd) [2016, США, Комедия, WEB-DLRip 1080p] Galfimbul 34919956513.25 GB 0 0 1459816895

03:41

5-Апр-16

Зарубежные фильмы 2016-2018 (Новинки зарубежного кино) ·· Охота на работу / Get a Job (Дилан Кидд / Dylan Kidd) [2016, США, Комедия, WEB-DLRip] MVO (RecentFilms) Galfimbul 15621017601.45 GB 0 0 1459722498

01:28

4-Апр-16

Еще никто не оставлял запись к записи скачать торрент Охота на работу Get a Job . Будь первым!

!Обратная связь