Скачать через торрент Стартрек: Бесконечность Star Trek Beyond Фильм бесплатно в хорошем качестве torrent

Скачивайте на UnionPeer.org фильмы через торрент без регистрации. Новинки кино в хорошем качестве через торрент. На UnionPeer.org можно скачать через торрент фильмы 2014 и 2015 годов. Самые новые фильмы.

Скачать торрент Стартрек: Бесконечность Star Trek Beyond бесплатно через .torrent фильм мультфильм сериал

Статистика раздачи
Размер:  2.86 GB   |    Зарегистрирован:  7 лет 3 месяца   |    .torrent скачан:  180 раз   |   
Раздают:  1  
   
 
Автор Сообщение

Galfimbul

avatar Galfimbul


<span class="post-font-serif1">Стартрек: Бесконечность
Star Trek Beyond

«Fifty year. One legacy»

Страна: США
Жанр: фантастика, боевик, триллер, приключения

Год выпуска: 2016
Продолжительность: 02:02:22

Перевод: Профессиональный (полное дублирование) [iTunes]
Субтитры: русские (форсированные; полные: iTunes, Notabenoid), английские (форсированные, полные, SDH)
Оригинальная аудиодорожка: английский

Режиссер: Джастин Лин / Justin Lin

В ролях: Крис Пайн, Закари Куинто, Саймон Пегг, Карл Урбан, Зои Салдана, Джон Чо, Антон Ельчин, Идрис Эльба, София Бутелла, Джо Таслим

Описание:
Бесстрашная команда крейсера Звездного Флота «Энтерпрайз» исследует неизведанные глубины космоса. Во время этого полного опасностей путешествия герои сталкиваются с таинственной силой, ставящей под угрозу не только их миссию и стабильность Федерации, но и весь миропорядок.





Автор рипа: stalkerok

Сэмпл

Качество видео: BDRip-AVC [Star Trek Beyond (2016) 1080p BD-Remux HDCLUB]
Формат видео: MKV

Видео: 2509 Кбит/сек, 1152*482 (2,40:1), в 23,976 (24000/1001) кадра/сек, AVC
Аудио #1: русский, 384 Кбит/сек, 48,0 КГц, 6 каналов, AC-3
Аудио #2: английский, 448 Кбит/сек, 48,0 КГц, 6 каналов, AC-3
Навигация по главам: есть</span>
x264 [info]: frame I:1240 Avg QP:15.12 size: 75039
x264 [info]: frame P:42938 Avg QP:18.71 size: 24888
x264 [info]: frame B:131859 Avg QP:20.20 size: 8638

Общее
Уникальный идентификатор : 237573457863553437720945937143048162089 (0xB2BAFBD06D7B0AC88488D9DED09BCB29)
Полное имя : M:\3Rips\Star Trek Beyond\Star.Trek.Beyond.2016.BDRip-AVC.Dub.2.91Gb.stalkerok.new-team.mkv
Формат : Matroska
Версия формата : Version 4 / Version 2
Размер файла : 2,86 Гбайт
Продолжительность : 2 ч. 2 м.
Общий поток : 3341 Кбит/сек
Название фильма : Star Trek Beyond (2016) (Rip by stalkerok)
Дата кодирования : UTC 2016-10-22 12:27:44
Программа кодирования : mkvmerge v8.6.1 ('Flying') 64bit
Библиотека кодирования : libebml v1.3.3 + libmatroska v1.4.4

Видео
Идентификатор : 1
Формат : AVC
Формат/Информация : Advanced Video Codec
Профиль формата : [email protected]
Параметр CABAC формата : Да
Параметр ReFrames формата : 13 кадров
Идентификатор кодека : V_MPEG4/ISO/AVC
Продолжительность : 2 ч. 2 м.
Битрейт : 2509 Кбит/сек
Ширина : 1152 пикселя
Высота : 482 пикселя
Соотношение сторон : 2,40:1
Режим частоты кадров : Постоянный
Частота кадров : 23,976 (24000/1001) кадра/сек
Цветовое пространство : YUV
Субдискретизация насыщенности : 4:2:0
Битовая глубина : 8 бит
Тип развёртки : Прогрессивная
Бит/(Пиксели*Кадры) : 0.188
Размер потока : 2,14 Гбайт (75%)
Заголовок : Star Trek Beyond (2016) (Rip by stalkerok)
Библиотека кодирования : x264 core 148 r2705+54 9f484c1 t_mod_Custom [8-bit@all X86_64]
Настройки программы : cabac=1 / ref=13 / deblock=1:-3:-2 / analyse=0x3:0x133 / me=umh / subme=10 / psy=1 / fade_compensate=0.00 / psy_rd=1.00:0.00 / mixed_ref=1 / me_range=32 / chroma_me=1 / trellis=2 / 8x8dct=1 / cqm=0 / deadzone=21,11 / fast_pskip=0 / chroma_qp_offset=-2 / threads=12 / lookahead_threads=3 / sliced_threads=0 / nr=0 / decimate=0 / interlaced=0 / bluray_compat=0 / constrained_intra=0 / fgo=0 / bframes=13 / b_pyramid=2 / b_adapt=2 / b_bias=0 / direct=3 / weightb=1 / open_gop=0 / weightp=2 / keyint=240 / keyint_min=23 / scenecut=40 / intra_refresh=0 / rc_lookahead=60 / rc=2pass / mbtree=0 / bitrate=2509 / ratetol=1.0 / qcomp=0.65 / qpmin=0:0:0 / qpmax=69:69:69 / qpstep=4 / cplxblur=20.0 / qblur=0.5 / vbv_maxrate=50000 / vbv_bufsize=62500 / nal_hrd=none / filler=0 / ip_ratio=1.35 / pb_ratio=1.25 / aq=3:0.80 / aq-sensitivity=10.00 / aq-factor=1.00:1.00:1.00 / aq2=0 / aq3=0
Default : Да
Forced : Нет

Аудио #1
Идентификатор : 2
Формат : AC-3
Формат/Информация : Audio Coding 3
Расширение режима : CM (complete main)
Параметр Endianness формата : Big
Идентификатор кодека : A_AC3
Продолжительность : 2 ч. 2 м.
Вид битрейта : Постоянный
Битрейт : 384 Кбит/сек
Каналы : 6 каналов
Расположение каналов : Front: L C R, Side: L R, LFE
Частота : 48,0 КГц
Частота кадров : 31,250 кадров/сек (1536 spf)
Метод сжатия : С потерями
Размер потока : 336 Мбайт (11%)
Язык : Russian
Default : Да
Forced : Нет

Аудио #2
Идентификатор : 3
Формат : AC-3
Формат/Информация : Audio Coding 3
Расширение режима : CM (complete main)
Параметр Endianness формата : Big
Идентификатор кодека : A_AC3
Продолжительность : 2 ч. 2 м.
Вид битрейта : Постоянный
Битрейт : 448 Кбит/сек
Каналы : 6 каналов
Расположение каналов : Front: L C R, Side: L R, LFE
Частота : 48,0 КГц
Частота кадров : 31,250 кадров/сек (1536 spf)
Метод сжатия : С потерями
Размер потока : 392 Мбайт (13%)
Язык : English
Default : Нет
Forced : Нет

Текст #1
Идентификатор : 4
Формат : UTF-8
Идентификатор кодека : S_TEXT/UTF8
Идентификатор кодека/Информация : UTF-8 Plain Text
Продолжительность : 1 ч. 49 м.
Битрейт : 1 бит/сек
Count of elements : 33
Размер потока : 1,59 Кбайт (0%)
Заголовок : Forced [potroks]
Язык : Russian
Default : Да
Forced : Нет

Текст #2
Идентификатор : 5
Формат : UTF-8
Идентификатор кодека : S_TEXT/UTF8
Идентификатор кодека/Информация : UTF-8 Plain Text
Продолжительность : 1 ч. 54 м.
Битрейт : 72 бит/сек
Count of elements : 1135
Размер потока : 60,4 Кбайт (0%)
Заголовок : Full [iTunes]
Язык : Russian
Default : Нет
Forced : Нет

Текст #3
Идентификатор : 6
Формат : UTF-8
Идентификатор кодека : S_TEXT/UTF8
Идентификатор кодека/Информация : UTF-8 Plain Text
Продолжительность : 1 ч. 51 м.
Битрейт : 88 бит/сек
Count of elements : 1231
Размер потока : 72,2 Кбайт (0%)
Заголовок : Full [Notabenoid]
Язык : Russian
Default : Нет
Forced : Нет

Текст #4
Идентификатор : 7
Формат : UTF-8
Идентификатор кодека : S_TEXT/UTF8
Идентификатор кодека/Информация : UTF-8 Plain Text
Продолжительность : 59 м.
Битрейт : 0 бит/сек
Count of elements : 15
Размер потока : 365 байт (0%)
Заголовок : Forced [iTunes]
Язык : English
Default : Нет
Forced : Нет

Текст #5
Идентификатор : 8
Формат : UTF-8
Идентификатор кодека : S_TEXT/UTF8
Идентификатор кодека/Информация : UTF-8 Plain Text
Продолжительность : 1 ч. 51 м.
Битрейт : 74 бит/сек
Count of elements : 1526
Размер потока : 61,3 Кбайт (0%)
Заголовок : Full [BD]
Язык : English
Default : Нет
Forced : Нет

Текст #6
Идентификатор : 9
Формат : UTF-8
Идентификатор кодека : S_TEXT/UTF8
Идентификатор кодека/Информация : UTF-8 Plain Text
Продолжительность : 1 ч. 51 м.
Битрейт : 58 бит/сек
Count of elements : 1527
Размер потока : 47,5 Кбайт (0%)
Заголовок : SDH [BD]
Язык : English
Default : Нет
Forced : Нет

Меню
00:00:00.000 : en:Chapter 1
00:08:26.547 : en:Chapter 2
00:16:11.636 : en:Chapter 3
00:32:38.288 : en:Chapter 4
00:42:16.367 : en:Chapter 5
00:52:22.264 : en:Chapter 6
00:59:50.628 : en:Chapter 7
01:12:05.529 : en:Chapter 8
01:22:34.448 : en:Chapter 9
01:33:00.948 : en:Chapter 10
01:40:33.318 : en:Chapter 11
01:47:38.993 : en:Chapter 12
01:52:32.662 : en:Chapter 13
01:55:41.350 : en:Chapter 14


Внимание! AdBlock блокирует показ скриншотов, все вопросы к разработчикам )))
Трекер:  [ 23-Окт-2016 21:30 ]

  

Скачать .torrent

Размер .torrent файла 15 KB


Размер: 2.86 GB
Хэш (hash) релиза: 0b521d59b74b8cf8649cc479a749a440b952076d
Подписка на обновления:

Торренты, похожие на Стартрек: Бесконечность Star Trek Beyond скачать торрент

Форум Название Автор Размер S L Добавлен
Зарубежные фильмы до 2016 ·· Стартрек: Бесконечность / Star Trek Beyond (Джастин Лин / Justin Lin)[2016, США, фантастика, боевик, приключения, Blu-Ray>DVD5 (Custom)] DUB+Eng+Sub rus,eng Galfimbul 46702673924.35 GB 0 0 1497117974

21:06

10-Июн-17

Зарубежные фильмы до 2016 ·· Стартрек: Бесконечность / Star Trek Beyond (Джастин Лин / Justin Lin)[2016, США, фантастика, боевик, приключения, Blu-Ray>DVD9 (Custom)] DUB+Eng+Sub rus,eng Galfimbul 84508569607.87 GB 0 0 1497029772

20:36

9-Июн-17

Трейлеры и дополнительные материалы ·· Стартрек: Бесконечность / Star Trek Beyond (Джастин Лин / Justin Lin) [2016, Фантастика, боевик, приключения, BDRip] дополнительные материалы VO (innokent33) & RUS Subs Galfimbul 809818628772 MB 0 0 1482686339

20:18

25-Дек-16

Зарубежные фильмы до 2016 ·· Стартрек: Бесконечность / Star Trek Beyond (Джастин Лин / Justin Lin) [2016, США, фантастика, боевик, триллер, приключения, DVD9 (Custom)] [16:9 NTSC R1] Dub (BD [CEE]) + Sub Eng Fre Spa Por Rus + Original Eng + DUB Fre Spa Galfimbul 75682160647.05 GB 0 0 1481711632

13:33

14-Дек-16

Трейлеры и дополнительные материалы ·· Стартрек: Бесконечность / Star Trek Beyond (Джастин Лин / Justin Lin) [2016, Фантастика, боевик, приключения, BDRip] дополнительные материалы VO (innokent33) & RUS Subs Galfimbul 561871260536 MB 0 0 1480751833

10:57

3-Дек-16

Зарубежные фильмы 2016-2019 (Новинки зарубежного кино) ·· Стартрек: Бесконечность / Star Trek Beyond (Джастин Лин / Justin Lin) [2016, США, Фантастика, боевик, триллер, приключения, BDRip] Dub (BD CEE) + Sub Rus Galfimbul 15622425311.45 GB 0 0 1478806444

22:34

10-Ноя-16

Трейлеры и дополнительные материалы ·· Стартрек: Бесконечность / Star Trek Beyond (Джастин Лин / Justin Lin) [2016, Фантастика | Боевик | Триллер | Приключения, BDRip 720p] дополнительные материалы Galfimbul 20824461131.94 GB 0 0 1478469070

00:51

7-Ноя-16

Зарубежные фильмы до 2016 ·· Стартрек: Бесконечность / Star Trek Beyond (Джастин Лин / Justin Lin) [2016, США, фантастика, боевик, триллер, приключения, Blu-ray disc 1080p] [CEE] Dub + Sub Rus, Eng + Original Eng Galfimbul 4712532360443.89 GB 0 0 1478343281

13:54

5-Ноя-16

Зарубежные фильмы 2016-2019 (Новинки зарубежного кино) ·· Стартрек: Бесконечность / Star Trek Beyond (Джастин Лин / Justin Lin) [2016, США, Фантастика, боевик, триллер, приключения, WEB-DLRip] Dub (iTunes) + Sub Rus Galfimbul 782194099746 MB 0 0 1477678110

21:08

28-Окт-16

Зарубежные фильмы до 2016 ·· Стартрек: Бесконечность / Star Trek Beyond (Джастин Лин / Justin Lin) [2016, США, фантастика, боевик, триллер, приключения, BDRip 1080p] Dub + Sub (Rus, Eng) + Original (Eng) Galfimbul 1508589138714.05 GB 0 0 1477512213

23:03

26-Окт-16

Зарубежные фильмы 2016-2019 (Новинки зарубежного кино) ·· Стартрек: Бесконечность / Star Trek Beyond (Джастин Лин / Justin Lin) [2016, США, фантастика, боевик, триллер, BDRip-AVC] Dub + Original + Sub (rus, eng) Galfimbul 23265504032.17 GB 0 0 1477332452

21:07

24-Окт-16

Зарубежные фильмы 2016-2019 (Новинки зарубежного кино) ·· Стартрек: Бесконечность / Star Trek Beyond (Джастин Лин / Justin Lin) [2016, США, фантастика, боевик, триллер, BDRip-AVC] Dub + Sub (rus) Galfimbul 15654261931.46 GB 0 0 1477301700

12:35

24-Окт-16

Зарубежные фильмы 2016-2019 (Новинки зарубежного кино) ·· Стартрек: Бесконечность / Star Trek Beyond (Джастин Лин / Justin Lin) [2016, США, Фантастика, боевик, триллер, приключения, BDRip] Dub (iTunes) + Sub Rus Galfimbul 15642592231.46 GB 0 0 1477073639

21:13

21-Окт-16

Зарубежные фильмы 2016-2019 (Новинки зарубежного кино) ·· Стартрек: Бесконечность / Star Trek Beyond (Джастин Лин / Justin Lin) [2016, США, фантастика, боевик, триллер, приключения, BDRip] Dub + Sub Rus, Eng + Original Eng Galfimbul 23434680122.18 GB 0 0 1477034741

10:25

21-Окт-16

Зарубежные фильмы до 2016 ·· Стартрек: Бесконечность / Star Trek Beyond (Джастин Лин / Justin Lin) [2016, США, фантастика, боевик, триллер, приключения, BDRip 720p] Dub (iTunes) + Sub Rus, Eng + Original Eng Galfimbul 65593606576.11 GB 0 0 1476979095

18:58

20-Окт-16

Зарубежные фильмы 2016-2019 (Новинки зарубежного кино) ·· Стартрек: Бесконечность / Star Trek Beyond (Джастин Лин / Justin Lin) [2016, США, фантастика, боевик, триллер, приключения, HDRip] Dub + Sub Rus, Eng + Original Eng Galfimbul 23434352442.18 GB 0 0 1476871234

13:00

19-Окт-16

Зарубежные фильмы 2016-2019 (Новинки зарубежного кино) ·· Стартрек: Бесконечность / Star Trek Beyond (Джастин Лин / Justin Lin) [2016, США, Фантастика, боевик, триллер, приключения, HDRip] Dub (iTunes) + Sub Rus Galfimbul 15650510051.46 GB 0 0 1476815892

21:38

18-Окт-16

Зарубежные фильмы 2016-2019 (Новинки зарубежного кино) ·· Стартрек: Бесконечность / Star Trek Beyond (Джастин Лин) [2016, фантастика, боевик, триллер, приключения, HDRip] iTunes Galfimbul 14675230721.37 GB 0 0 1476760321

06:12

18-Окт-16

Зарубежные фильмы 2016-2019 (Новинки зарубежного кино) ·· Стартрек: Бесконечность / Star Trek Beyond (Джастин Лин) [2016, фантастика, боевик, триллер, приключения, BDRip 720p] iTunes Galfimbul 62060957895.78 GB 0 0 1476760311

06:11

18-Окт-16

Еще никто не оставлял запись к записи скачать торрент Стартрек: Бесконечность Star Trek Beyond . Будь первым!

!Обратная связь