Скачать через торрент Стартрек: Бесконечность Star Trek Beyond Фильм бесплатно в хорошем качестве torrent

Скачивайте на UnionPeer.org фильмы через торрент без регистрации. Новинки кино в хорошем качестве через торрент. На UnionPeer.org можно скачать через торрент фильмы 2014 и 2015 годов. Самые новые фильмы.

Скачать торрент Стартрек: Бесконечность Star Trek Beyond бесплатно через .torrent фильм мультфильм сериал

Статистика раздачи
Размер:  14.05 GB   |    Зарегистрирован:  7 лет 4 месяца   |    .torrent скачан:  219 раз   |   
Раздают:  1  
   
 
Автор Сообщение

Galfimbul

avatar Galfimbul


Стартрек: Бесконечность / Star Trek Beyond

Страна: США
Студия: Bad Robot, Paramount Pictures, Perfect Storm Entertainment, Skydance Productions, Sneaky Shark
Жанр: фантастика, боевик, триллер, приключения
Год выпуска: 2016
Продолжительность: 02:02:22

Перевод: Профессиональный (дублированный) Лицензия
Cубтитры: Russian (Full, Forced), English (SDH, Full)
Оригинальная аудиодорожка: английский

Режиссер: Джастин Лин / Justin Lin

В ролях: Крис Пайн, Закари Куинто, Саймон Пегг, Карл Урбан, Зои Салдана, Джон Чо, Антон Ельчин, Идрис Эльба, София Бутелла, Джо Таслим

Описание: Через два года после начала очередной космической миссии команда «Энтерпрайза» сталкивается с испытанием, перед которым меркнут все предыдущие приключения отважного экипажа. После атаки неопознанных врагов корабль терпит бедствие на таинственной, затерянной в глубинах пространства планете. Оказавшись на краю Вселенной, лишенные помощи Федерации, капитан Кирк и его товарищи узнают о существовании чудовищного оружия, угрожающего обитаемым планетным системам.





Тип релиза: BDRip 1080p
Контейнер: MKV

Видео: MPEG-4 AVC, 14.3 Мбит/сек, 1920x804, 23,976 fps
Аудио: Rus, DTS, 1509 kb/s (6 ch), 48 kHz
Аудио 2: Eng, AC3, 640 kb/s (6 ch), 48 kHz
Формат субтитров: softsub (SRT)
Общее
Уникальный идентификатор : 199031547876699032173005029475470707601 (0x95BC14F068A928FDB04E72D9306A8B91)
Полное имя : E:\Star.Trek.Beyond.2016.BDRip.1080p\Star.Trek.Beyond.2016.BDRip.1080p.mkv
Формат : Matroska
Версия формата : Version 4 / Version 2
Размер файла : 14,0 Гбайт
Продолжительность : 2 ч. 2 м.
Общий поток : 16,4 Мбит/сек
Дата кодирования : UTC 2016-10-23 15:22:34
Программа кодирования : mkvmerge v9.4.0 ('Knurl') 64bit
Библиотека кодирования : libebml v1.3.4 + libmatroska v1.4.5

Видео
Идентификатор : 1
Формат : AVC
Формат/Информация : Advanced Video Codec
Профиль формата : [email protected]
Параметр CABAC формата : Да
Параметр ReFrames формата : 4 кадра
Идентификатор кодека : V_MPEG4/ISO/AVC
Продолжительность : 2 ч. 2 м.
Битрейт : 14,3 Мбит/сек
Ширина : 1920 пикселей
Высота : 804 пикселя
Соотношение сторон : 2,40:1
Режим частоты кадров : Постоянный
Частота кадров : 23,976 (24000/1001) кадра/сек
Цветовое пространство : YUV
Субдискретизация насыщенности : 4:2:0
Битовая глубина : 8 бит
Тип развёртки : Прогрессивная
Бит/(Пиксели*Кадры) : 0.386
Размер потока : 12,2 Гбайт (87%)
Библиотека кодирования : x264 core 142 r2431+42 c69a006 tMod [8-bit@4:2:0 X86_64]
Настройки программы : cabac=1 / ref=4 / deblock=1:-3:-3 / analyse=0x3:0x113 / me=umh / subme=11 / psy=1 / fade_compensate=0.00 / psy_rd=1.00:0.05 / mixed_ref=1 / me_range=48 / chroma_me=1 / trellis=2 / 8x8dct=1 / cqm=0 / deadzone=21,11 / fast_pskip=0 / chroma_qp_offset=-2 / threads=12 / lookahead_threads=2 / sliced_threads=0 / nr=0 / decimate=1 / interlaced=0 / bluray_compat=0 / constrained_intra=0 / fgo=0 / bframes=8 / b_pyramid=2 / b_adapt=2 / b_bias=0 / direct=3 / weightb=1 / open_gop=0 / weightp=2 / keyint=250 / keyint_min=23 / scenecut=40 / intra_refresh=0 / rc_lookahead=40 / rc=crf / mbtree=0 / crf=18.0000 / qcomp=0.60 / qpmin=0:0:0 / qpmax=69:69:69 / qpstep=4 / vbv_maxrate=50000 / vbv_bufsize=45000 / crf_max=0.0 / nal_hrd=none / filler=0 / ip_ratio=1.40 / pb_ratio=1.30 / aq=3:1.00 / aq-sensitivity=10.00 / aq-factor=1.00:1.00:1.00 / aq2=0 / aq3=0
Язык : English
Default : Да
Forced : Нет
Цветовой диапазон : Limited
Коэффициенты матрицы : BT.709

Аудио #1
Идентификатор : 2
Формат : DTS
Формат/Информация : Digital Theater Systems
Режим : 16
Параметр Endianness формата : Big
Идентификатор кодека : A_DTS
Продолжительность : 2 ч. 2 м.
Вид битрейта : Постоянный
Битрейт : 1509 Кбит/сек
Каналы : 6 каналов
Расположение каналов : Front: L C R, Side: L R, LFE
Частота : 48,0 КГц
Частота кадров : 93,750 кадра/сек (512 spf)
Битовая глубина : 24 бит
Метод сжатия : С потерями
Размер потока : 1,29 Гбайт (9%)
Заголовок : Dub | Лицензия
Язык : Russian
Default : Да
Forced : Нет

Аудио #2
Идентификатор : 3
Формат : AC-3
Формат/Информация : Audio Coding 3
Расширение режима : CM (complete main)
Параметр Endianness формата : Big
Идентификатор кодека : A_AC3
Продолжительность : 2 ч. 2 м.
Вид битрейта : Постоянный
Битрейт : 640 Кбит/сек
Каналы : 6 каналов
Расположение каналов : Front: L C R, Side: L R, LFE
Частота : 48,0 КГц
Частота кадров : 31,250 кадров/сек (1536 spf)
Метод сжатия : С потерями
Размер потока : 560 Мбайт (4%)
Заголовок : Original
Язык : English
Default : Нет
Forced : Нет

Текст #1
Идентификатор : 4
Формат : UTF-8
Идентификатор кодека : S_TEXT/UTF8
Идентификатор кодека/Информация : UTF-8 Plain Text
Продолжительность : 1 ч. 49 м.
Битрейт : 1 бит/сек
Count of elements : 23
Размер потока : 1,10 Кбайт (0%)
Заголовок : Forced
Язык : Russian
Default : Да
Forced : Нет

Текст #2
Идентификатор : 5
Формат : UTF-8
Идентификатор кодека : S_TEXT/UTF8
Идентификатор кодека/Информация : UTF-8 Plain Text
Продолжительность : 1 ч. 54 м.
Битрейт : 78 бит/сек
Count of elements : 1178
Размер потока : 66,0 Кбайт (0%)
Заголовок : Full
Язык : Russian
Default : Нет
Forced : Нет

Текст #3
Идентификатор : 6
Формат : UTF-8
Идентификатор кодека : S_TEXT/UTF8
Идентификатор кодека/Информация : UTF-8 Plain Text
Продолжительность : 1 ч. 51 м.
Битрейт : 59 бит/сек
Count of elements : 1527
Размер потока : 48,7 Кбайт (0%)
Заголовок : SDH
Язык : English
Default : Нет
Forced : Нет

Текст #4
Идентификатор : 7
Формат : UTF-8
Идентификатор кодека : S_TEXT/UTF8
Идентификатор кодека/Информация : UTF-8 Plain Text
Продолжительность : 1 ч. 51 м.
Битрейт : 53 бит/сек
Count of elements : 1300
Размер потока : 43,7 Кбайт (0%)
Заголовок : Full
Язык : English
Default : Нет
Forced : Нет

Меню
00:00:00.000 : en:00:00:00.000
00:08:26.548 : en:00:08:26.548
00:16:11.637 : en:00:16:11.637
00:32:38.290 : en:00:32:38.290
00:42:16.367 : en:00:42:16.367
00:52:22.264 : en:00:52:22.264
00:59:50.629 : en:00:59:50.629
01:12:05.530 : en:01:12:05.530
01:22:34.449 : en:01:22:34.449
01:33:00.950 : en:01:33:00.950
01:40:33.319 : en:01:40:33.319
01:47:38.994 : en:01:47:38.994
01:52:32.663 : en:01:52:32.663
01:55:41.351 : en:01:55:41.351


Внимание! AdBlock блокирует показ скриншотов, все вопросы к разработчикам )))
Трекер:  [ 26-Окт-2016 22:00 ]

  

Скачать .torrent

Размер .torrent файла 70 KB


Размер: 14.05 GB
Хэш (hash) релиза: 2d9a7a8175aadb53e48fa3fdbdc928879453bcfb
Подписка на обновления:

Торренты, похожие на Стартрек: Бесконечность Star Trek Beyond скачать торрент

Форум Название Автор Размер S L Добавлен
Зарубежные фильмы до 2016 ·· Стартрек: Бесконечность / Star Trek Beyond (Джастин Лин / Justin Lin)[2016, США, фантастика, боевик, приключения, Blu-Ray>DVD5 (Custom)] DUB+Eng+Sub rus,eng Galfimbul 46702673924.35 GB 0 0 1497117974

21:06

10-Июн-17

Зарубежные фильмы до 2016 ·· Стартрек: Бесконечность / Star Trek Beyond (Джастин Лин / Justin Lin)[2016, США, фантастика, боевик, приключения, Blu-Ray>DVD9 (Custom)] DUB+Eng+Sub rus,eng Galfimbul 84508569607.87 GB 0 0 1497029772

20:36

9-Июн-17

Трейлеры и дополнительные материалы ·· Стартрек: Бесконечность / Star Trek Beyond (Джастин Лин / Justin Lin) [2016, Фантастика, боевик, приключения, BDRip] дополнительные материалы VO (innokent33) & RUS Subs Galfimbul 809818628772 MB 0 0 1482686339

20:18

25-Дек-16

Зарубежные фильмы до 2016 ·· Стартрек: Бесконечность / Star Trek Beyond (Джастин Лин / Justin Lin) [2016, США, фантастика, боевик, триллер, приключения, DVD9 (Custom)] [16:9 NTSC R1] Dub (BD [CEE]) + Sub Eng Fre Spa Por Rus + Original Eng + DUB Fre Spa Galfimbul 75682160647.05 GB 0 0 1481711632

13:33

14-Дек-16

Трейлеры и дополнительные материалы ·· Стартрек: Бесконечность / Star Trek Beyond (Джастин Лин / Justin Lin) [2016, Фантастика, боевик, приключения, BDRip] дополнительные материалы VO (innokent33) & RUS Subs Galfimbul 561871260536 MB 0 0 1480751833

10:57

3-Дек-16

Зарубежные фильмы 2016-2019 (Новинки зарубежного кино) ·· Стартрек: Бесконечность / Star Trek Beyond (Джастин Лин / Justin Lin) [2016, США, Фантастика, боевик, триллер, приключения, BDRip] Dub (BD CEE) + Sub Rus Galfimbul 15622425311.45 GB 0 0 1478806444

22:34

10-Ноя-16

Трейлеры и дополнительные материалы ·· Стартрек: Бесконечность / Star Trek Beyond (Джастин Лин / Justin Lin) [2016, Фантастика | Боевик | Триллер | Приключения, BDRip 720p] дополнительные материалы Galfimbul 20824461131.94 GB 0 0 1478469070

00:51

7-Ноя-16

Зарубежные фильмы до 2016 ·· Стартрек: Бесконечность / Star Trek Beyond (Джастин Лин / Justin Lin) [2016, США, фантастика, боевик, триллер, приключения, Blu-ray disc 1080p] [CEE] Dub + Sub Rus, Eng + Original Eng Galfimbul 4712532360443.89 GB 2 0 1478343281

13:54

5-Ноя-16

Зарубежные фильмы 2016-2019 (Новинки зарубежного кино) ·· Стартрек: Бесконечность / Star Trek Beyond (Джастин Лин / Justin Lin) [2016, США, Фантастика, боевик, триллер, приключения, WEB-DLRip] Dub (iTunes) + Sub Rus Galfimbul 782194099746 MB 0 0 1477678110

21:08

28-Окт-16

Зарубежные фильмы 2016-2019 (Новинки зарубежного кино) ·· Стартрек: Бесконечность / Star Trek Beyond (Джастин Лин / Justin Lin) [2016, США, фантастика, боевик, триллер, BDRip-AVC] Dub + Original + Sub (rus, eng) Galfimbul 23265504032.17 GB 0 0 1477332452

21:07

24-Окт-16

Зарубежные фильмы 2016-2019 (Новинки зарубежного кино) ·· Стартрек: Бесконечность / Star Trek Beyond (Джастин Лин / Justin Lin) [2016, США, фантастика, боевик, триллер, BDRip-AVC] Dub + Sub (rus) Galfimbul 15654261931.46 GB 0 0 1477301700

12:35

24-Окт-16

Зарубежные фильмы 2016-2019 (Новинки зарубежного кино) ·· Стартрек: Бесконечность / Star Trek Beyond (Джастин Лин / Justin Lin) [2016, США, фантастика, боевик, триллер, приключения, BDRip-AVC] Dub + Original (eng) + Sub (rus, eng) Galfimbul 30665838222.86 GB 0 0 1477253377

23:09

23-Окт-16

Зарубежные фильмы 2016-2019 (Новинки зарубежного кино) ·· Стартрек: Бесконечность / Star Trek Beyond (Джастин Лин / Justin Lin) [2016, США, Фантастика, боевик, триллер, приключения, BDRip] Dub (iTunes) + Sub Rus Galfimbul 15642592231.46 GB 0 0 1477073639

21:13

21-Окт-16

Зарубежные фильмы 2016-2019 (Новинки зарубежного кино) ·· Стартрек: Бесконечность / Star Trek Beyond (Джастин Лин / Justin Lin) [2016, США, фантастика, боевик, триллер, приключения, BDRip] Dub + Sub Rus, Eng + Original Eng Galfimbul 23434680122.18 GB 0 0 1477034741

10:25

21-Окт-16

Зарубежные фильмы до 2016 ·· Стартрек: Бесконечность / Star Trek Beyond (Джастин Лин / Justin Lin) [2016, США, фантастика, боевик, триллер, приключения, BDRip 720p] Dub (iTunes) + Sub Rus, Eng + Original Eng Galfimbul 65593606576.11 GB 0 0 1476979095

18:58

20-Окт-16

Зарубежные фильмы 2016-2019 (Новинки зарубежного кино) ·· Стартрек: Бесконечность / Star Trek Beyond (Джастин Лин / Justin Lin) [2016, США, фантастика, боевик, триллер, приключения, HDRip] Dub + Sub Rus, Eng + Original Eng Galfimbul 23434352442.18 GB 0 0 1476871234

13:00

19-Окт-16

Зарубежные фильмы 2016-2019 (Новинки зарубежного кино) ·· Стартрек: Бесконечность / Star Trek Beyond (Джастин Лин / Justin Lin) [2016, США, Фантастика, боевик, триллер, приключения, HDRip] Dub (iTunes) + Sub Rus Galfimbul 15650510051.46 GB 0 0 1476815892

21:38

18-Окт-16

Зарубежные фильмы 2016-2019 (Новинки зарубежного кино) ·· Стартрек: Бесконечность / Star Trek Beyond (Джастин Лин) [2016, фантастика, боевик, триллер, приключения, HDRip] iTunes Galfimbul 14675230721.37 GB 0 0 1476760321

06:12

18-Окт-16

Зарубежные фильмы 2016-2019 (Новинки зарубежного кино) ·· Стартрек: Бесконечность / Star Trek Beyond (Джастин Лин) [2016, фантастика, боевик, триллер, приключения, BDRip 720p] iTunes Galfimbul 62060957895.78 GB 0 0 1476760311

06:11

18-Окт-16

Еще никто не оставлял запись к записи скачать торрент Стартрек: Бесконечность Star Trek Beyond . Будь первым!

!Обратная связь