Скачать через торрент Тарзан. Легенда The Legend of Tarzan Фильм бесплатно в хорошем качестве torrent

Скачивайте на UnionPeer.org фильмы через торрент без регистрации. Новинки кино в хорошем качестве через торрент. На UnionPeer.org можно скачать через торрент фильмы 2014 и 2015 годов. Самые новые фильмы.

Скачать торрент Тарзан. Легенда The Legend of Tarzan бесплатно через .torrent фильм мультфильм сериал

Статистика раздачи
Размер:  13.4 GB   |    Зарегистрирован:  7 лет 3 месяца   |    .torrent скачан:  129 раз   |   
Раздают:  1  
   
 
Автор Сообщение

Galfimbul

avatar Galfimbul


Тарзан. Легенда / The Legend of Tarzan

Страна: США, Великобритания, Канада
Студия: Dark Horse Entertainment, Jerry Weintraub Productions, Riche Productions
Жанр: Боевик, драма, мелодрама, приключения
Год выпуска: 2016
Продолжительность: 01:49:58

Перевод: Профессиональный (дублированный) BD CEE
Перевод 2: Профессиональный многоголосый (закадровый) FocusStudio
Cубтитры: Russian (Forced, Full, FocusStudio), English (Full, SDH)
Оригинальная аудиодорожка: английский

Режиссер: Дэвид Йэтс / David Yates

В ролях: Александр Скарсгард, Рори Дж. Сапер, Кристоф Вальц, Сэмюэл Л. Джексон, Марго Робби, Ози Икхайл, Менс-Сана Тамакло, Энтони Ачеампонг

Описание: Приспособившийся к жизни в Лондоне Тарзан возвращается в свой бывший дом, в джунгли, чтобы разобраться в том, что происходит в лагере горнодобывающей компании.



Тип релиза: BDRip 1080p
Контейнер: MKV

Видео: MPEG-4 AVC, 15,7 Мбит/сек, 1920x800, 23,976 fps
Аудио: Rus, AC3, 448 kb/s (6 ch), 48 kHz |Дубляж, Blu-Ray CEE|
Аудио 2: Rus, AC3, 640 kb/s (6 ch), 48 kHz |Профессиональный многоголосый, FocusStudio|
Аудио 3: Eng, AC3, 640 kb/s (6 ch), 48 kHz |Оригинал|
Формат субтитров: softsub (SRT)
ОбщееУникальный идентификатор : 239741959542307399874448375769337563726 (0xB45C9F339585036C8C7B1275730A0A4E)Полное имя : E:\The Legend of Tarzan 2016 BDRip.1080p.mkvФормат : MatroskaВерсия формата : Version 4 / Version 2Размер файла : 13,4 ГбайтПродолжительность : 1 ч. 49 м.Общий поток : 17,4 Мбит/секДата кодирования : UTC 2016-10-27 05:59:22Программа кодирования : mkvmerge v9.4.0 ('Knurl') 64bitБиблиотека кодирования : libebml v1.3.4 + libmatroska v1.4.5

ВидеоИдентификатор : 1Формат : AVCФормат/Информация : Advanced Video CodecПрофиль формата : [email protected]Параметр CABAC формата : ДаПараметр ReFrames формата : 5 кадровИдентификатор кодека : V_MPEG4/ISO/AVCПродолжительность : 1 ч. 49 м.Битрейт : 15,7 Мбит/секШирина : 1920 пикселейВысота : 800 пикселейСоотношение сторон : 2,40:1Режим частоты кадров : ПостоянныйЧастота кадров : 23,976 (24000/1001) кадра/секЦветовое пространство : YUVСубдискретизация насыщенности : 4:2:0Битовая глубина : 8 битТип развёртки : ПрогрессивнаяБит/(Пиксели*Кадры) : 0.427Размер потока : 12,1 Гбайт (90%)Библиотека кодирования : x264 core 148 r2705+54 9f484c1 t_mod_Custom [8-bit@all X86_64]Настройки программы : cabac=1 / ref=5 / deblock=1:-3:-3 / analyse=0x3:0x133 / me=umh / subme=11 / psy=1 / fade_compensate=0.00 / psy_rd=1.05:0.00 / mixed_ref=1 / me_range=32 / chroma_me=1 / trellis=2 / 8x8dct=1 / cqm=0 / deadzone=21,11 / fast_pskip=0 / chroma_qp_offset=-2 / threads=18 / lookahead_threads=3 / sliced_threads=0 / nr=0 / decimate=0 / interlaced=0 / bluray_compat=0 / constrained_intra=0 / fgo=0 / bframes=8 / b_pyramid=2 / b_adapt=2 / b_bias=0 / direct=3 / weightb=1 / open_gop=0 / weightp=2 / keyint=250 / keyint_min=23 / scenecut=40 / intra_refresh=0 / rc_lookahead=60 / rc=crf / mbtree=0 / crf=16.5000 / qcomp=0.65 / qpmin=0:0:0 / qpmax=69:69:69 / qpstep=4 / vbv_maxrate=62500 / vbv_bufsize=78125 / crf_max=0.0 / nal_hrd=none / filler=0 / ip_ratio=1.30 / pb_ratio=1.20 / aq=3:0.75 / aq-sensitivity=10.00 / aq-factor=1.00:1.00:1.00 / aq2=0 / aq3=0 / zones=391,549,crf=12/970,1010,crf=12/11815,11890,crf=13.5/25223,25304,crf=14/25427,25500,crf=14/25608,25683,crf=14/25850,25905,crf=13.5/28016,28096,crf=14.5/41706,42442,crf=15.5/45802,45841,crf=15.5/47441,47525,crf=15.5/48745,50086,crf=16/53620,61178,crf=16/65732,67968,crf=17/70330,74451,crf=17/80112,80599,crf=13.5/88543,88755,crf=14/106546,109892,crf=16/110344,113403,crf=16/115127,115201,crf=13.5/122566,122637,crf=13.5/126272,131042,crf=17/132221,133063,crf=17/144355,144435,crf=14/146870,158050,crf=22Язык : EnglishDefault : ДаForced : НетЦветовой диапазон : LimitedКоэффициенты матрицы : BT.709

Аудио #1Идентификатор : 2Формат : AC-3Формат/Информация : Audio Coding 3Расширение режима : CM (complete main)Параметр Endianness формата : BigИдентификатор кодека : A_AC3Продолжительность : 1 ч. 49 м.Вид битрейта : ПостоянныйБитрейт : 448 Кбит/секКаналы : 6 каналовРасположение каналов : Front: L C R, Side: L R, LFEЧастота : 48,0 КГцЧастота кадров : 31,250 кадров/сек (1536 spf)Метод сжатия : С потерямиРазмер потока : 352 Мбайт (3%)Заголовок : Dub | BD CEEЯзык : RussianDefault : ДаForced : Нет

Аудио #2Идентификатор : 3Формат : AC-3Формат/Информация : Audio Coding 3Расширение режима : CM (complete main)Параметр Endianness формата : BigИдентификатор кодека : A_AC3Продолжительность : 1 ч. 49 м.Вид битрейта : ПостоянныйБитрейт : 640 Кбит/секКаналы : 6 каналовРасположение каналов : Front: L C R, Side: L R, LFEЧастота : 48,0 КГцЧастота кадров : 31,250 кадров/сек (1536 spf)Метод сжатия : С потерямиРазмер потока : 503 Мбайт (4%)Заголовок : MVO | FocusStudioЯзык : RussianDefault : НетForced : Нет

Аудио #3Идентификатор : 4Формат : AC-3Формат/Информация : Audio Coding 3Расширение режима : CM (complete main)Параметр Endianness формата : BigИдентификатор кодека : A_AC3Продолжительность : 1 ч. 49 м.Вид битрейта : ПостоянныйБитрейт : 640 Кбит/секКаналы : 6 каналовРасположение каналов : Front: L C R, Side: L R, LFEЧастота : 48,0 КГцЧастота кадров : 31,250 кадров/сек (1536 spf)Метод сжатия : С потерямиРазмер потока : 503 Мбайт (4%)Заголовок : OriginalЯзык : EnglishDefault : НетForced : Нет

Текст #1Идентификатор : 5Формат : UTF-8Идентификатор кодека : S_TEXT/UTF8Идентификатор кодека/Информация : UTF-8 Plain TextПродолжительность : 1 ч. 43 м.Битрейт : 3 бит/секCount of elements : 43Размер потока : 2,34 Кбайт (0%)Заголовок : ForcedЯзык : RussianDefault : ДаForced : Нет

Текст #2Идентификатор : 6Формат : UTF-8Идентификатор кодека : S_TEXT/UTF8Идентификатор кодека/Информация : UTF-8 Plain TextПродолжительность : 1 ч. 43 м.Битрейт : 45 бит/секCount of elements : 712Размер потока : 34,7 Кбайт (0%)Заголовок : FullЯзык : RussianDefault : НетForced : Нет

Текст #3Идентификатор : 7Формат : UTF-8Идентификатор кодека : S_TEXT/UTF8Идентификатор кодека/Информация : UTF-8 Plain TextПродолжительность : 1 ч. 47 м.Битрейт : 26 бит/секCount of elements : 677Размер потока : 20,8 Кбайт (0%)Заголовок : EnglishЯзык : EnglishDefault : НетForced : Нет

Текст #4Идентификатор : 8Формат : UTF-8Идентификатор кодека : S_TEXT/UTF8Идентификатор кодека/Информация : UTF-8 Plain TextПродолжительность : 1 ч. 47 м.Битрейт : 32 бит/секCount of elements : 940Размер потока : 25,3 Кбайт (0%)Заголовок : English SDHЯзык : EnglishDefault : НетForced : Нет

Меню00:00:00.000 : en:100:10:56.239 : en:200:20:47.204 : en:300:28:26.288 : en:400:40:49.197 : en:500:51:03.310 : en:601:01:15.297 : en:701:10:22.635 : en:801:20:58.145 : en:901:29:09.344 : en:1001:42:06.495 : en:11


Внимание! AdBlock блокирует показ скриншотов, все вопросы к разработчикам )))
Трекер:  [ 05-Ноя-2016 13:00 ]

  

Скачать .torrent

Размер .torrent файла 67 KB


Размер: 13.4 GB
Хэш (hash) релиза: a6f7f26be15359494a9869eea9b47adeffd42b19
Подписка на обновления:

Торренты, похожие на Тарзан. Легенда The Legend of Tarzan скачать торрент

Форум Название Автор Размер S L Добавлен
Зарубежные фильмы 2016-2019 (Новинки зарубежного кино) ·%· Тарзан. Легенда / The Legend of Tarzan (2016) BDRip-HEVC 1080p | Лицензия Galfimbul 64937534306.05 GB 0 0 1548318015

11:20

24-Янв-19

Зарубежные фильмы до 2016 ·· Тарзан. Легенда / The Legend of Tarzan (Дэвид Йэтс / David Yates) [2016, Великобритания, Канада, США, Фэнтези, боевик, драма, мелодрама, приключения, DVD9] R5 Dub + Sub Rus + Original Eng Galfimbul 69263994886.45 GB 0 0 1527192114

23:01

24-Май-18

Зарубежные фильмы до 2016 ·· Тарзан. Легенда / The Legend of Tarzan (Дэвид Йэтс / David Yates) [2016, США, Великобритания, Канада, боевик, драма, мелодрама, приключения, BDRip 720p] Dub + MVO (FocusStudio) + Sub Rus, Eng + Original Eng Galfimbul 72433947606.75 GB 0 0 1478343342

13:55

5-Ноя-16

Трейлеры и дополнительные материалы ·· Тарзан. Легенда / The Legend of Tarzan (Дэвид Йэтс / David Yates) [2016, Боевик | Мелодрама | Приключения, BDRip 720p] дополнительные материалы Galfimbul 17537140641.63 GB 0 0 1477841086

18:24

30-Окт-16

Зарубежные фильмы 2016-2019 (Новинки зарубежного кино) ·· Тарзан. Легенда / The Legend of Tarzan (Дэвид Йэтс / David Yates) [2016, США, Великобритания, Канада ,боевик, мелодрама, приключения, BDRip] MVO (FocusStudio) + Sub Rus (forced) Galfimbul 15692317711.46 GB 0 0 1477677860

21:04

28-Окт-16

Зарубежные фильмы 2016-2019 (Новинки зарубежного кино) ·· Тарзан. Легенда / The Legend of Tarzan (Дэвид Йэтс / David Yates) [2016, США, боевик, мелодрама, приключения, BDRip-AVC] Dub + Original + Sub (rus, eng) Galfimbul 27558827502.57 GB 0 0 1477479440

13:57

26-Окт-16

Зарубежные фильмы до 2016 ·· Тарзан. Легенда / The Legend of Tarzan (Дэвид Йэтс / David Yates) [2016, США, Великобритания, Канада, боевик, драма, мелодрама, приключения, BDRip 720p] Dub + MVO (FocusStudio) + Sub Rus, Eng + Original Eng Galfimbul 72433295806.75 GB 0 0 1477470519

11:28

26-Окт-16

Зарубежные фильмы до 2016 ·· Тарзан. Легенда / The Legend of Tarzan (Дэвид Йэтс / David Yates) [2016, США, Великобритания, Канада, боевик, мелодрама, приключения, Blu-ray disc 1080p] [CEE] Dub + Sub Rus, Eng + Original Eng Galfimbul 3898599511336.31 GB 0 0 1477425915

23:05

25-Окт-16

Зарубежные фильмы до 2016 ·· Тарзан. Легенда / The Legend of Tarzan (Дэвид Йэтс / David Yates) [2016, США, Великобритания, Канада, боевик, драма, мелодрама, приключения, BDRip 720p] Dub (iTunes) + Sub Rus, Eng + Original Eng Galfimbul 66623279016.2 GB 0 0 1475269693

00:08

1-Окт-16

Зарубежные фильмы 2016-2019 (Новинки зарубежного кино) ·· Тарзан. Легенда / The Legend of Tarzan (Дэвид Йэтс / David Yates) [2016, США, боевик, мелодрама, приключения, BDRip-AVC] Dub Galfimbul 15505171371.44 GB 0 0 1474799427

13:30

25-Сен-16

Зарубежные фильмы 2016-2019 (Новинки зарубежного кино) ·· Тарзан. Легенда / The Legend of Tarzan (Дэвид Йэтс / David Yates) [2016, США, Боевик, приключения, BDRip] Dub + Original Eng + Subs (rus,eng) Galfimbul 23473135822.19 GB 0 0 1474787499

10:11

25-Сен-16

Зарубежные фильмы 2016-2019 (Новинки зарубежного кино) ·· Тарзан. Легенда / The Legend of Tarzan (Дэвид Йэтс / David Yates) [2016, США, боевик, мелодрама, приключения, BDRip-AVC] Dub + Original + Sub (rus, eng) Galfimbul 27030420682.52 GB 0 0 1474759431

02:23

25-Сен-16

Зарубежные фильмы 2016-2019 (Новинки зарубежного кино) ·· Тарзан. Легенда / The Legend of Tarzan (Дэвид Йэтс / David Yates) [2016,США, Великобритания, Канада, боевик, драма, мелодрама, приключения, HDRip] iTunes Galfimbul 22048563202.05 GB 0 0 1474542740

14:12

22-Сен-16

Зарубежные фильмы 2016-2019 (Новинки зарубежного кино) ·· Тарзан. Легенда / The Legend of Tarzan (Дэвид Йэтс / David Yates) [2016,США, Великобритания, Канада, боевик, драма, мелодрама, приключения, HDRip] iTunes Galfimbul 22048563202.05 GB 0 0 1474542726

14:12

22-Сен-16

Зарубежные фильмы 2016-2019 (Новинки зарубежного кино) ·· Тарзан. Легенда / The Legend of Tarzan (Дэвид Йэтс / David Yates) [2016,США, Великобритания, Канада, боевик, драма, мелодрама, приключения, HDRip] iTunes Galfimbul 14674042881.37 GB 0 0 1474539546

13:19

22-Сен-16

Зарубежные фильмы 2016-2019 (Новинки зарубежного кино) ·· Тарзан. Легенда / The Legend of Tarzan (Дэвид Йэтс / David Yates) [2016,США, Великобритания, Канада, боевик, драма, мелодрама, приключения, WEB-DLRip] Dub (iTunes) + Original + Subs (rus,eng) Galfimbul 18850001101.76 GB 0 0 1474441262

10:01

21-Сен-16

Зарубежные фильмы 2016-2019 (Новинки зарубежного кино) ·· Тарзан. Легенда / The Legend of Tarzan (Дэвид Йэтс / David Yates) [2016,США, Великобритания, Канада, боевик, драма, мелодрама, приключения, WEB-DL 720p] iTunes Galfimbul 38509074303.59 GB 0 0 1474413020

02:10

21-Сен-16

Зарубежные фильмы 2016-2019 (Новинки зарубежного кино) ·· Тарзан. Легенда / The Legend of Tarzan (Дэвид Йэтс / David Yates) [2016,США, Великобритания, Канада, боевик, драма, мелодрама, приключения, WEB-DLRip] iTunes Galfimbul 14684610561.37 GB 0 0 1474413015

02:10

21-Сен-16

Зарубежные фильмы 2016-2019 (Новинки зарубежного кино) ·· Тарзан. Легенда / The Legend of Tarzan (Дэвид Йэтс / David Yates) [2016,США, Великобритания, Канада, боевик, драма, мелодрама, приключения, WEB-DLRip] iTunes Galfimbul 22050570242.05 GB 0 0 1474413011

02:10

21-Сен-16

Еще никто не оставлял запись к записи скачать торрент Тарзан. Легенда The Legend of Tarzan . Будь первым!

!Обратная связь