Скачать через торрент Тарзан. Легенда The Legend of Tarzan Фильм бесплатно в хорошем качестве torrent

Скачивайте на UnionPeer.org фильмы через торрент без регистрации. Новинки кино в хорошем качестве через торрент. На UnionPeer.org можно скачать через торрент фильмы 2014 и 2015 годов. Самые новые фильмы.

Скачать торрент Тарзан. Легенда The Legend of Tarzan бесплатно через .torrent фильм мультфильм сериал

Статистика раздачи
Размер:  6.05 GB   |    Зарегистрирован:  5 лет 1 месяц   |    .torrent скачан:  64 раза   |   
Раздают:  1  
 

Скачать Тарзан. Легенда / The Legend of Tarzan (2016) BDRip-HEVC 1080p | Лицензия через torrent

 
 
Автор Сообщение

Galfimbul

avatar Galfimbul


Год выхода: 2016
Страна: Великобритания, Канада, США
Жанр: Фэнтези, боевик, драма, мелодрама, приключения
Продолжительность: 01:49:58
Перевод: Дублированный (Лицензия)

Режиссер: Дэвид Йейтс
В главных ролях: Александр Скарсгард, Марго Робби, Сэмюэл Л. Джексон, Кристоф Вальц, Джимон Хонсу, Джим Бродбент, Каспер Крамп, Хэдли Фрайзер

Описание: Приспособившийся к жизни в Лондоне Тарзан возвращается в свой бывший дом, в джунгли, чтобы разобраться в том, что происходит в лагере горнодобывающей компании.

Качество: BDRip 1080p
Видео: HEVC/H.265, 1920x800, ~6782 Kbps
Аудио 1: AC3, 6 ch, 448 Kbps - Дублированный
Аудио 2: AC3, 6 ch, 640 Kbps - Английский
Субтитры: Русские (форсированные, полные), английские
Общее
Уникальный идентификатор : 238478723013817792992527518439235710951 (0xB36954D500899EC2B82C03207A9CEFE7)
Полное имя : F:РАЗДАЧИТарзан. Легенда (1080p) HEVC.mkv
Формат : Matroska
Версия формата : Version 4 / Version 2
Размер файла : 6,05 Гбайт
Продолжительность : 1 ч. 49 м.
Общий поток : 7873 Кбит/сек
Дата кодирования : UTC 2016-11-17 10:51:53
Программа кодирования : mkvmerge v9.2.0 ('Photograph') 64bit
Библиотека кодирования : libebml v1.3.3 + libmatroska v1.4.4

Видео
Идентификатор : 1
Формат : HEVC
Формат/Информация : High Efficiency Video Coding
Профиль формата : Main@L4@Main
Идентификатор кодека : V_MPEGH/ISO/HEVC
Продолжительность : 1 ч. 49 м.
Битрейт : 6782 Кбит/сек
Ширина : 1920 пикселей
Высота : 800 пикселей
Соотношение сторон : 2,40:1
Режим частоты кадров : Постоянный
Частота кадров : 23,976 (24000/1001) кадра/сек
Цветовое пространство : YUV
Субдискретизация насыщенности : 4:2:0
Битовая глубина : 8 бит
Бит/(Пиксели*Кадры) : 0.184
Размер потока : 5,21 Гбайт (86%)
Библиотека кодирования : x265 2.1+25-0e9e52640546:[Windows][GCC 5.3.1][64 bit] 8bit
Настройки программы : wpp / ctu=64 / min-cu-size=8 / max-tu-size=32 / tu-intra-depth=1 / tu-inter-depth=1 / me=2 / subme=5 / merange=57 / no-rect / no-amp / max-merge=5 / temporal-mvp / no-early-skip / rskip / rdpenalty=0 / no-tskip / no-tskip-fast / strong-intra-smoothing / no-lossless / no-cu-lossless / no-constrained-intra / no-fast-intra / open-gop / no-temporal-layers / interlace=0 / keyint=250 / min-keyint=23 / scenecut=40 / rc-lookahead=60 / lookahead-slices=0 / bframes=8 / bframe-bias=0 / b-adapt=2 / ref=5 / limit-refs=3 / no-limit-modes / weightp / weightb / aq-mode=1 / qg-size=64 / aq-strength=0.50 / cbqpoffs=0 / crqpoffs=0 / rd=3 / psy-rd=1.80 / rdoq-level=2 / psy-rdoq=3.00 / log2-max-poc-lsb=8 / limit-tu=0 / no-rd-refine / signhide / deblock=-3:-3 / no-sao / no-sao-non-deblock / b-pyramid / no-cutree / no-intra-refresh / rc=2 / pass / bitrate=6800 / qcomp=0.70 / qpmin=0 / qpmax=69 / qpstep=4 / cplxblur=20.0 / qblur=0.5 / ipratio=1.20 / pbratio=1.10
Default : Да
Forced : Нет

Аудио #1
Идентификатор : 2
Формат : AC-3
Формат/Информация : Audio Coding 3
Идентификатор кодека : A_AC3
Продолжительность : 1 ч. 49 м.
Вид битрейта : Постоянный
Битрейт : 448 Кбит/сек
Каналы : 6 каналов
Расположение каналов : Front: L C R, Side: L R, LFE
Частота : 48,0 КГц
Частота кадров : 31,250 кадров/сек (1536 SPF)
Битовая глубина : 16 бит
Метод сжатия : С потерями
Размер потока : 352 Мбайт (6%)
Заголовок : Дублированный
Язык : Russian
ServiceKind/Strin : Complete Main
Default : Да
Forced : Нет

Аудио #2
Идентификатор : 3
Формат : AC-3
Формат/Информация : Audio Coding 3
Идентификатор кодека : A_AC3
Продолжительность : 1 ч. 49 м.
Вид битрейта : Постоянный
Битрейт : 640 Кбит/сек
Каналы : 6 каналов
Расположение каналов : Front: L C R, Side: L R, LFE
Частота : 48,0 КГц
Частота кадров : 31,250 кадров/сек (1536 SPF)
Битовая глубина : 16 бит
Метод сжатия : С потерями
Размер потока : 503 Мбайт (8%)
Язык : English
ServiceKind/Strin : Complete Main
Default : Нет
Forced : Нет

Текст #1
Идентификатор : 4
Формат : UTF-8
Идентификатор кодека : S_TEXT/UTF8
Идентификатор кодека/Информация : UTF-8 Plain Text
Продолжительность : 1 ч. 43 м.
Битрейт : 3 бит/сек
ElementCount : 43
Размер потока : 2,34 Кбайт (0%)
Заголовок : Forced
Язык : Russian
Default : Да
Forced : Да

Текст #2
Идентификатор : 5
Формат : UTF-8
Идентификатор кодека : S_TEXT/UTF8
Идентификатор кодека/Информация : UTF-8 Plain Text
Продолжительность : 1 ч. 43 м.
Битрейт : 45 бит/сек
ElementCount : 712
Размер потока : 34,7 Кбайт (0%)
Заголовок : Full
Язык : Russian
Default : Нет
Forced : Нет

Текст #3
Идентификатор : 6
Формат : UTF-8
Идентификатор кодека : S_TEXT/UTF8
Идентификатор кодека/Информация : UTF-8 Plain Text
Продолжительность : 1 ч. 47 м.
Битрейт : 26 бит/сек
ElementCount : 677
Размер потока : 20,8 Кбайт (0%)
Заголовок : Full
Язык : English
Default : Нет
Forced : Нет

Меню
00:00:00.000 : en:Chapter 01
00:10:56.238 : en:Chapter 02
00:20:47.203 : en:Chapter 03
00:28:26.287 : en:Chapter 04
00:40:49.194 : en:Chapter 05
00:51:03.309 : en:Chapter 06
01:01:15.295 : en:Chapter 07
01:10:22.635 : en:Chapter 08
01:20:58.144 : en:Chapter 09
01:29:09.344 : en:Chapter 10
01:42:06.494 : en:Chapter 11
01:49:58.591 : en:Chapter 12

Источник http://BlaTor.org

Внимание! AdBlock блокирует показ скриншотов, все вопросы к разработчикам )))
Трекер:  [ 24-Янв-2019 11:20 ]

  

Скачать .torrent

Размер .torrent файла 30 KB


Размер: 6.05 GB
Хэш (hash) релиза: e3ea99ed78a814092fb4e854fb75ba25c0b79160
Подписка на обновления:

Торренты, похожие на Тарзан. Легенда The Legend of Tarzan скачать торрент

Форум Название Автор Размер S L Добавлен
Зарубежные фильмы до 2016 ·· Тарзан. Легенда / The Legend of Tarzan (Дэвид Йэтс / David Yates) [2016, Великобритания, Канада, США, Фэнтези, боевик, драма, мелодрама, приключения, DVD9] R5 Dub + Sub Rus + Original Eng Galfimbul 69263994886.45 GB 0 0 1527192114

23:01

24-Май-18

Зарубежные фильмы до 2016 ·· Тарзан. Легенда / The Legend of Tarzan (Дэвид Йэтс / David Yates) [2016, США, Великобритания, Канада, боевик, драма, мелодрама, приключения, BDRip 1080p] Dub (BD CEE) + MVO + Sub (Eng, Rus) + Original (Eng) Galfimbul 1439172532913.4 GB 0 0 1478343346

13:55

5-Ноя-16

Зарубежные фильмы до 2016 ·· Тарзан. Легенда / The Legend of Tarzan (Дэвид Йэтс / David Yates) [2016, США, Великобритания, Канада, боевик, драма, мелодрама, приключения, BDRip 720p] Dub + MVO (FocusStudio) + Sub Rus, Eng + Original Eng Galfimbul 72433947606.75 GB 0 0 1478343342

13:55

5-Ноя-16

Трейлеры и дополнительные материалы ·· Тарзан. Легенда / The Legend of Tarzan (Дэвид Йэтс / David Yates) [2016, Боевик | Мелодрама | Приключения, BDRip 720p] дополнительные материалы Galfimbul 17537140641.63 GB 0 0 1477841086

18:24

30-Окт-16

Зарубежные фильмы 2016-2019 (Новинки зарубежного кино) ·· Тарзан. Легенда / The Legend of Tarzan (Дэвид Йэтс / David Yates) [2016, США, Великобритания, Канада ,боевик, мелодрама, приключения, BDRip] MVO (FocusStudio) + Sub Rus (forced) Galfimbul 15692317711.46 GB 0 0 1477677860

21:04

28-Окт-16

Зарубежные фильмы 2016-2019 (Новинки зарубежного кино) ·· Тарзан. Легенда / The Legend of Tarzan (Дэвид Йэтс / David Yates) [2016, США, боевик, мелодрама, приключения, BDRip-AVC] Dub + Original + Sub (rus, eng) Galfimbul 27558827502.57 GB 0 0 1477479440

13:57

26-Окт-16

Зарубежные фильмы до 2016 ·· Тарзан. Легенда / The Legend of Tarzan (Дэвид Йэтс / David Yates) [2016, США, Великобритания, Канада, боевик, драма, мелодрама, приключения, BDRip 720p] Dub + MVO (FocusStudio) + Sub Rus, Eng + Original Eng Galfimbul 72433295806.75 GB 0 0 1477470519

11:28

26-Окт-16

Зарубежные фильмы до 2016 ·· Тарзан. Легенда / The Legend of Tarzan (Дэвид Йэтс / David Yates) [2016, США, Великобритания, Канада, боевик, мелодрама, приключения, Blu-ray disc 1080p] [CEE] Dub + Sub Rus, Eng + Original Eng Galfimbul 3898599511336.31 GB 0 0 1477425915

23:05

25-Окт-16

Зарубежные фильмы до 2016 ·· Тарзан. Легенда / The Legend of Tarzan (Дэвид Йэтс / David Yates) [2016, США, Великобритания, Канада, боевик, драма, мелодрама, приключения, BDRip 720p] Dub (iTunes) + Sub Rus, Eng + Original Eng Galfimbul 66623279016.2 GB 0 0 1475269693

00:08

1-Окт-16

Зарубежные фильмы 2016-2019 (Новинки зарубежного кино) ·· Тарзан. Легенда / The Legend of Tarzan (Дэвид Йэтс / David Yates) [2016, США, боевик, мелодрама, приключения, BDRip-AVC] Dub Galfimbul 15505171371.44 GB 0 0 1474799427

13:30

25-Сен-16

Зарубежные фильмы 2016-2019 (Новинки зарубежного кино) ·· Тарзан. Легенда / The Legend of Tarzan (Дэвид Йэтс / David Yates) [2016, США, Боевик, приключения, BDRip] Dub + Original Eng + Subs (rus,eng) Galfimbul 23473135822.19 GB 0 0 1474787499

10:11

25-Сен-16

Зарубежные фильмы 2016-2019 (Новинки зарубежного кино) ·· Тарзан. Легенда / The Legend of Tarzan (Дэвид Йэтс / David Yates) [2016, США, боевик, мелодрама, приключения, BDRip-AVC] Dub + Original + Sub (rus, eng) Galfimbul 27030420682.52 GB 0 0 1474759431

02:23

25-Сен-16

Зарубежные фильмы 2016-2019 (Новинки зарубежного кино) ·· Тарзан. Легенда / The Legend of Tarzan (Дэвид Йэтс / David Yates) [2016,США, Великобритания, Канада, боевик, драма, мелодрама, приключения, HDRip] iTunes Galfimbul 22048563202.05 GB 0 0 1474542740

14:12

22-Сен-16

Зарубежные фильмы 2016-2019 (Новинки зарубежного кино) ·· Тарзан. Легенда / The Legend of Tarzan (Дэвид Йэтс / David Yates) [2016,США, Великобритания, Канада, боевик, драма, мелодрама, приключения, HDRip] iTunes Galfimbul 22048563202.05 GB 0 0 1474542726

14:12

22-Сен-16

Зарубежные фильмы 2016-2019 (Новинки зарубежного кино) ·· Тарзан. Легенда / The Legend of Tarzan (Дэвид Йэтс / David Yates) [2016,США, Великобритания, Канада, боевик, драма, мелодрама, приключения, HDRip] iTunes Galfimbul 14674042881.37 GB 0 0 1474539546

13:19

22-Сен-16

Зарубежные фильмы 2016-2019 (Новинки зарубежного кино) ·· Тарзан. Легенда / The Legend of Tarzan (Дэвид Йэтс / David Yates) [2016,США, Великобритания, Канада, боевик, драма, мелодрама, приключения, WEB-DLRip] Dub (iTunes) + Original + Subs (rus,eng) Galfimbul 18850001101.76 GB 0 0 1474441262

10:01

21-Сен-16

Зарубежные фильмы 2016-2019 (Новинки зарубежного кино) ·· Тарзан. Легенда / The Legend of Tarzan (Дэвид Йэтс / David Yates) [2016,США, Великобритания, Канада, боевик, драма, мелодрама, приключения, WEB-DL 720p] iTunes Galfimbul 38509074303.59 GB 0 0 1474413020

02:10

21-Сен-16

Зарубежные фильмы 2016-2019 (Новинки зарубежного кино) ·· Тарзан. Легенда / The Legend of Tarzan (Дэвид Йэтс / David Yates) [2016,США, Великобритания, Канада, боевик, драма, мелодрама, приключения, WEB-DLRip] iTunes Galfimbul 14684610561.37 GB 0 0 1474413015

02:10

21-Сен-16

Зарубежные фильмы 2016-2019 (Новинки зарубежного кино) ·· Тарзан. Легенда / The Legend of Tarzan (Дэвид Йэтс / David Yates) [2016,США, Великобритания, Канада, боевик, драма, мелодрама, приключения, WEB-DLRip] iTunes Galfimbul 22050570242.05 GB 0 0 1474413011

02:10

21-Сен-16

Еще никто не оставлял запись к записи скачать торрент Тарзан. Легенда The Legend of Tarzan . Будь первым!

!Обратная связь